  0
SECTION
  2
HEADER
  9
$ACADVER
  1
AC1015
  9
$ACADMAINTVER
 70
     6
  9
$DWGCODEPAGE
  3
ANSI_1252
  9
$INSBASE
 10
0.0
 20
0.0
 30
0.0
  9
$EXTMIN
 10
0.0
 20
0.0
 30
0.0
  9
$EXTMAX
 10
296.9999999999999
 20
210.0
 30
0.0
  9
$LIMMIN
 10
0.0
 20
0.0
  9
$LIMMAX
 10
12.0
 20
9.0
  9
$ORTHOMODE
 70
     0
  9
$REGENMODE
 70
     1
  9
$FILLMODE
 70
     1
  9
$QTEXTMODE
 70
     0
  9
$MIRRTEXT
 70
     1
  9
$LTSCALE
 40
1.0
  9
$ATTMODE
 70
     1
  9
$TEXTSIZE
 40
0.2
  9
$TRACEWID
 40
0.05
  9
$TEXTSTYLE
  7
Standard
  9
$CLAYER
  8
0
  9
$CELTYPE
  6
ByLayer
  9
$CECOLOR
 62
   256
  9
$CELTSCALE
 40
1.0
  9
$DISPSILH
 70
     0
  9
$DIMSCALE
 40
1.0
  9
$DIMASZ
 40
0.18
  9
$DIMEXO
 40
0.0625
  9
$DIMDLI
 40
0.38
  9
$DIMRND
 40
0.0
  9
$DIMDLE
 40
0.0
  9
$DIMEXE
 40
0.18
  9
$DIMTP
 40
0.0
  9
$DIMTM
 40
0.0
  9
$DIMTXT
 40
0.18
  9
$DIMCEN
 40
0.09
  9
$DIMTSZ
 40
0.0
  9
$DIMTOL
 70
     0
  9
$DIMLIM
 70
     0
  9
$DIMTIH
 70
     1
  9
$DIMTOH
 70
     1
  9
$DIMSE1
 70
     0
  9
$DIMSE2
 70
     0
  9
$DIMTAD
 70
     0
  9
$DIMZIN
 70
     0
  9
$DIMBLK
  1

  9
$DIMASO
 70
     1
  9
$DIMSHO
 70
     1
  9
$DIMPOST
  1

  9
$DIMAPOST
  1

  9
$DIMALT
 70
     0
  9
$DIMALTD
 70
     2
  9
$DIMALTF
 40
25.4
  9
$DIMLFAC
 40
1.0
  9
$DIMTOFL
 70
     0
  9
$DIMTVP
 40
0.0
  9
$DIMTIX
 70
     0
  9
$DIMSOXD
 70
     0
  9
$DIMSAH
 70
     0
  9
$DIMBLK1
  1

  9
$DIMBLK2
  1

  9
$DIMSTYLE
  2
Standard
  9
$DIMCLRD
 70
     0
  9
$DIMCLRE
 70
     0
  9
$DIMCLRT
 70
     0
  9
$DIMTFAC
 40
1.0
  9
$DIMGAP
 40
0.09
  9
$DIMJUST
 70
     0
  9
$DIMSD1
 70
     0
  9
$DIMSD2
 70
     0
  9
$DIMTOLJ
 70
     1
  9
$DIMTZIN
 70
     0
  9
$DIMALTZ
 70
     0
  9
$DIMALTTZ
 70
     0
  9
$DIMUPT
 70
     0
  9
$DIMDEC
 70
     4
  9
$DIMTDEC
 70
     4
  9
$DIMALTU
 70
     2
  9
$DIMALTTD
 70
     2
  9
$DIMTXSTY
  7
Standard
  9
$DIMAUNIT
 70
     0
  9
$DIMADEC
 70
     0
  9
$DIMALTRND
 40
0.0
  9
$DIMAZIN
 70
     0
  9
$DIMDSEP
 70
    46
  9
$DIMATFIT
 70
     3
  9
$DIMFRAC
 70
     0
  9
$DIMLDRBLK
  1

  9
$DIMLUNIT
 70
     2
  9
$DIMLWD
 70
    -2
  9
$DIMLWE
 70
    -2
  9
$DIMTMOVE
 70
     0
  9
$LUNITS
 70
     2
  9
$LUPREC
 70
     4
  9
$SKETCHINC
 40
0.1
  9
$FILLETRAD
 40
0.5
  9
$AUNITS
 70
     0
  9
$AUPREC
 70
     0
  9
$MENU
  1
.
  9
$ELEVATION
 40
0.0
  9
$PELEVATION
 40
0.0
  9
$THICKNESS
 40
0.0
  9
$LIMCHECK
 70
     0
  9
$CHAMFERA
 40
0.5
  9
$CHAMFERB
 40
0.5
  9
$CHAMFERC
 40
1.0
  9
$CHAMFERD
 40
0.0
  9
$SKPOLY
 70
     0
  9
$TDCREATE
 40
2456997.616604259
  9
$TDUCREATE
 40
2456997.574937593
  9
$TDUPDATE
 40
2456997.616604618
  9
$TDUUPDATE
 40
2456997.574937951
  9
$TDINDWG
 40
0.0000000116
  9
$TDUSRTIMER
 40
0.0000000116
  9
$USRTIMER
 70
     1
  9
$ANGBASE
 50
0.0
  9
$ANGDIR
 70
     0
  9
$PDMODE
 70
     0
  9
$PDSIZE
 40
0.0
  9
$PLINEWID
 40
0.0
  9
$SPLFRAME
 70
     0
  9
$SPLINETYPE
 70
     6
  9
$SPLINESEGS
 70
     8
  9
$HANDSEED
  5
7A9
  9
$SURFTAB1
 70
     6
  9
$SURFTAB2
 70
     6
  9
$SURFTYPE
 70
     6
  9
$SURFU
 70
     6
  9
$SURFV
 70
     6
  9
$UCSBASE
  2

  9
$UCSNAME
  2

  9
$UCSORG
 10
0.0
 20
0.0
 30
0.0
  9
$UCSXDIR
 10
1.0
 20
0.0
 30
0.0
  9
$UCSYDIR
 10
0.0
 20
1.0
 30
0.0
  9
$UCSORTHOREF
  2

  9
$UCSORTHOVIEW
 70
     0
  9
$UCSORGTOP
 10
0.0
 20
0.0
 30
0.0
  9
$UCSORGBOTTOM
 10
0.0
 20
0.0
 30
0.0
  9
$UCSORGLEFT
 10
0.0
 20
0.0
 30
0.0
  9
$UCSORGRIGHT
 10
0.0
 20
0.0
 30
0.0
  9
$UCSORGFRONT
 10
0.0
 20
0.0
 30
0.0
  9
$UCSORGBACK
 10
0.0
 20
0.0
 30
0.0
  9
$PUCSBASE
  2

  9
$PUCSNAME
  2

  9
$PUCSORG
 10
0.0
 20
0.0
 30
0.0
  9
$PUCSXDIR
 10
1.0
 20
0.0
 30
0.0
  9
$PUCSYDIR
 10
0.0
 20
1.0
 30
0.0
  9
$PUCSORTHOREF
  2

  9
$PUCSORTHOVIEW
 70
     0
  9
$PUCSORGTOP
 10
0.0
 20
0.0
 30
0.0
  9
$PUCSORGBOTTOM
 10
0.0
 20
0.0
 30
0.0
  9
$PUCSORGLEFT
 10
0.0
 20
0.0
 30
0.0
  9
$PUCSORGRIGHT
 10
0.0
 20
0.0
 30
0.0
  9
$PUCSORGFRONT
 10
0.0
 20
0.0
 30
0.0
  9
$PUCSORGBACK
 10
0.0
 20
0.0
 30
0.0
  9
$USERI1
 70
     0
  9
$USERI2
 70
     0
  9
$USERI3
 70
     0
  9
$USERI4
 70
     0
  9
$USERI5
 70
     0
  9
$USERR1
 40
18.1
  9
$USERR2
 40
0.0
  9
$USERR3
 40
0.0
  9
$USERR4
 40
0.0
  9
$USERR5
 40
0.0
  9
$WORLDVIEW
 70
     1
  9
$SHADEDGE
 70
     3
  9
$SHADEDIF
 70
    70
  9
$TILEMODE
 70
     1
  9
$MAXACTVP
 70
    64
  9
$PINSBASE
 10
0.0
 20
0.0
 30
0.0
  9
$PLIMCHECK
 70
     0
  9
$PEXTMIN
 10
1.00000000000000E+20
 20
1.00000000000000E+20
 30
1.00000000000000E+20
  9
$PEXTMAX
 10
-1.00000000000000E+20
 20
-1.00000000000000E+20
 30
-1.00000000000000E+20
  9
$PLIMMIN
 10
0.0
 20
0.0
  9
$PLIMMAX
 10
12.0
 20
9.0
  9
$UNITMODE
 70
     0
  9
$VISRETAIN
 70
     1
  9
$PLINEGEN
 70
     0
  9
$PSLTSCALE
 70
     1
  9
$TREEDEPTH
 70
  3020
  9
$CMLSTYLE
  2
Standard
  9
$CMLJUST
 70
     0
  9
$CMLSCALE
 40
1.0
  9
$PROXYGRAPHICS
 70
     1
  9
$MEASUREMENT
 70
     1
  9
$CELWEIGHT
370
    -1
  9
$ENDCAPS
280
     0
  9
$JOINSTYLE
280
     0
  9
$LWDISPLAY
290
     0
  9
$INSUNITS
 70
     4
  9
$HYPERLINKBASE
  1

  9
$STYLESHEET
  1

  9
$XEDIT
290
     1
  9
$CEPSNTYPE
380
     0
  9
$PSTYLEMODE
290
     1
  9
$FINGERPRINTGUID
  2
{DBDCACAC-EB57-4060-9505-B4A80888D336}
  9
$VERSIONGUID
  2
{FAEB1C32-E019-11D5-929B-00C0DF256EC4}
  9
$EXTNAMES
290
     1
  9
$PSVPSCALE
 40
0.0
  9
$OLESTARTUP
290
     0
  0
ENDSEC
  0
SECTION
  2
CLASSES
  0
CLASS
  1
ACDBDICTIONARYWDFLT
  2
AcDbDictionaryWithDefault
  3
ObjectDBX Classes
 90
        0
280
     0
281
     0
  0
CLASS
  1
VISUALSTYLE
  2
AcDbVisualStyle
  3
ObjectDBX Classes
 90
     4095
280
     0
281
     0
  0
CLASS
  1
MATERIAL
  2
AcDbMaterial
  3
ObjectDBX Classes
 90
     1153
280
     0
281
     0
  0
CLASS
  1
DICTIONARYVAR
  2
AcDbDictionaryVar
  3
ObjectDBX Classes
 90
        0
280
     0
281
     0
  0
CLASS
  1
ACDBPLACEHOLDER
  2
AcDbPlaceHolder
  3
ObjectDBX Classes
 90
        0
280
     0
281
     0
  0
CLASS
  1
LAYOUT
  2
AcDbLayout
  3
ObjectDBX Classes
 90
        0
280
     0
281
     0
  0
ENDSEC
  0
SECTION
  2
TABLES
  0
TABLE
  2
VPORT
  5
8
330
0
100
AcDbSymbolTable
 70
     1
  0
VPORT
  5
29
330
8
100
AcDbSymbolTableRecord
100
AcDbViewportTableRecord
  2
*Active
 70
     0
 10
0.0
 20
0.0
 11
1.0
 21
1.0
 12
148.4999999999999
 22
105.0
 13
0.0
 23
0.0
 14
0.5
 24
0.5
 15
0.5
 25
0.5
 16
0.0
 26
0.0
 36
1.0
 17
0.0
 27
0.0
 37
0.0
 40
231.0
 41
1.60267857142857
 42
50.0
 43
0.0
 44
0.0
 50
0.0
 51
0.0
 71
     0
 72
   100
 73
     1
 74
     3
 75
     0
 76
     0
 77
     0
 78
     0
281
     0
 65
     1
110
0.0
120
0.0
130
0.0
111
1.0
121
0.0
131
0.0
112
0.0
122
1.0
132
0.0
 79
     0
146
0.0
  0
ENDTAB
  0
TABLE
  2
LTYPE
  5
5
330
0
100
AcDbSymbolTable
 70
     9
  0
LTYPE
  5
14
330
5
100
AcDbSymbolTableRecord
100
AcDbLinetypeTableRecord
  2
ByBlock
 70
     0
  3

 72
    65
 73
     0
 40
0.0
  0
LTYPE
  5
15
330
5
100
AcDbSymbolTableRecord
100
AcDbLinetypeTableRecord
  2
ByLayer
 70
     0
  3

 72
    65
 73
     0
 40
0.0
  0
LTYPE
  5
16
330
5
100
AcDbSymbolTableRecord
100
AcDbLinetypeTableRecord
  2
Continuous
 70
     0
  3
Solid line
 72
    65
 73
     0
 40
0.0
  0
LTYPE
  5
3F
330
5
100
AcDbSymbolTableRecord
100
AcDbLinetypeTableRecord
  2
DASHED
 70
     0
  3
Dashed
 72
    65
 73
     2
 40
15.0
 49
7.0
 74
     0
 49
-8.0
 74
     0
  0
LTYPE
  5
40
330
5
100
AcDbSymbolTableRecord
100
AcDbLinetypeTableRecord
  2
DOTTED
 70
     0
  3
Dotted
 72
    65
 73
     2
 40
1.0
 49
0.0
 74
     0
 49
-1.0
 74
     0
  0
LTYPE
  5
41
330
5
100
AcDbSymbolTableRecord
100
AcDbLinetypeTableRecord
  2
DOT_CENTER
 70
     0
  3
Dot_Center
 72
    65
 73
     4
 40
14.0
 49
12.0
 74
     0
 49
-1.0
 74
     0
 49
0.0
 74
     0
 49
-1.0
 74
     0
  0
LTYPE
  5
42
330
5
100
AcDbSymbolTableRecord
100
AcDbLinetypeTableRecord
  2
LONG_DASHED
 70
     0
  3
Long_Dashed
 72
    65
 73
     2
 40
15.0
 49
10.0
 74
     0
 49
-5.0
 74
     0
  0
LTYPE
  5
43
330
5
100
AcDbSymbolTableRecord
100
AcDbLinetypeTableRecord
  2
DASH_CENTER
 70
     0
  3
Dash_Center
 72
    65
 73
     4
 40
14.0
 49
11.0
 74
     0
 49
-1.0
 74
     0
 49
1.0
 74
     0
 49
-1.0
 74
     0
  0
LTYPE
  5
44
330
5
100
AcDbSymbolTableRecord
100
AcDbLinetypeTableRecord
  2
PHANTOM
 70
     0
  3
Phantom
 72
    65
 73
     6
 40
13.0
 49
10.0
 74
     0
 49
-1.0
 74
     0
 49
0.0
 74
     0
 49
-1.0
 74
     0
 49
0.0
 74
     0
 49
-1.0
 74
     0
  0
LTYPE
  5
45
330
5
100
AcDbSymbolTableRecord
100
AcDbLinetypeTableRecord
  2
CENTER_DASH_DASH
 70
     0
  3
Center_Dash_Dash
 72
    65
 73
     6
 40
14.0
 49
9.0
 74
     0
 49
-1.0
 74
     0
 49
1.0
 74
     0
 49
-1.0
 74
     0
 49
1.0
 74
     0
 49
-1.0
 74
     0
  0
LTYPE
  5
46
330
5
100
AcDbSymbolTableRecord
100
AcDbLinetypeTableRecord
  2
CHAIN
 70
     0
  3
CHAIN
 72
    65
 73
     4
 40
4.0
 49
1.0
 74
     0
 49
-1.0
 74
     0
 49
1.0
 74
     0
 49
-1.0
 74
     0
  0
ENDTAB
  0
TABLE
  2
LAYER
  5
2
330
0
100
AcDbSymbolTable
 70
     7
  0
LAYER
  5
10
330
2
100
AcDbSymbolTableRecord
100
AcDbLayerTableRecord
  2
0
 70
     0
 62
     7
  6
Continuous
370
    -3
390
F
  0
LAYER
  5
47
330
2
100
AcDbSymbolTableRecord
100
AcDbLayerTableRecord
  2
1
 70
     0
 62
     7
  6
Continuous
370
    -3
390
F
  0
LAYER
  5
48
330
2
100
AcDbSymbolTableRecord
100
AcDbLayerTableRecord
  2
Bemaßungen_TC_020513_DIN_
 70
     0
 62
     7
  6
Continuous
370
    -3
390
F
  0
LAYER
  5
49
330
2
100
AcDbSymbolTableRecord
100
AcDbLayerTableRecord
  2
Mittellinie_TC_020513_DIN_
 70
     0
 62
     7
  6
Continuous
370
    -3
390
F
  0
LAYER
  5
4A
330
2
100
AcDbSymbolTableRecord
100
AcDbLayerTableRecord
  2
Mittelpunktmarkierung_TC_020513_DIN_
 70
     0
 62
     7
  6
Continuous
370
    -3
390
F
  0
LAYER
  5
4B
330
2
100
AcDbSymbolTableRecord
100
AcDbLayerTableRecord
  2
Sichtbare_Kanten_TC_020513_DIN_
 70
     0
 62
     7
  6
Continuous
370
    -3
390
F
  0
LAYER
  5
4C
330
2
100
AcDbSymbolTableRecord
100
AcDbLayerTableRecord
  2
Skizziergeometrie_TC_020513_DIN_
 70
     0
 62
     7
  6
Continuous
370
    -3
390
F
  0
ENDTAB
  0
TABLE
  2
STYLE
  5
3
330
0
100
AcDbSymbolTable
 70
     4
  0
STYLE
  5
11
330
3
100
AcDbSymbolTableRecord
100
AcDbTextStyleTableRecord
  2
Standard
 70
     0
 40
0.0
 41
1.0
 50
0.0
 71
     0
 42
0.2
  3
txt
  4

  0
STYLE
  5
95
330
3
100
AcDbSymbolTableRecord
100
AcDbTextStyleTableRecord
  2
CONVERTER_11
 70
     0
 40
0.0
 41
0.9
 50
0.0
 71
     0
 42
0.2
  3
txt.shx
  4

  0
STYLE
  5
98
330
3
100
AcDbSymbolTableRecord
100
AcDbTextStyleTableRecord
  2
CONVERTER_12
 70
     0
 40
0.0
 41
1.035
 50
0.0
 71
     0
 42
0.2
  3
txt.shx
  4

  0
STYLE
  5
717
330
3
100
AcDbSymbolTableRecord
100
AcDbTextStyleTableRecord
  2
CONVERTER_13
 70
     0
 40
0.0
 41
0.95
 50
0.0
 71
     0
 42
0.2
  3
simplex.shx
  4

  0
ENDTAB
  0
TABLE
  2
VIEW
  5
6
330
0
100
AcDbSymbolTable
 70
     0
  0
ENDTAB
  0
TABLE
  2
UCS
  5
7
330
0
100
AcDbSymbolTable
 70
     0
  0
ENDTAB
  0
TABLE
  2
APPID
  5
9
330
0
100
AcDbSymbolTable
 70
     1
  0
APPID
  5
12
330
9
100
AcDbSymbolTableRecord
100
AcDbRegAppTableRecord
  2
ACAD
 70
     0
  0
ENDTAB
  0
TABLE
  2
DIMSTYLE
  5
A
330
0
100
AcDbSymbolTable
 70
    10
100
AcDbDimStyleTable
  0
DIMSTYLE
105
27
330
A
100
AcDbSymbolTableRecord
100
AcDbDimStyleTableRecord
  2
Standard
 70
     0
178
     0
340
11
  0
DIMSTYLE
105
722
102
{ACAD_REACTORS
330
723
102
}
330
A
100
AcDbSymbolTableRecord
100
AcDbDimStyleTableRecord
  2
ME10_DIM_10
 70
     0
 41
3.0
 42
0.5
 44
1.0
 73
     0
 74
     0
 77
     1
 78
     8
140
3.0
147
2.0
172
     1
173
     1
174
     1
175
     1
176
     2
177
     2
271
     2
178
     4
271
     2
340
717
  0
DIMSTYLE
105
72D
102
{ACAD_REACTORS
330
72E
102
}
330
A
100
AcDbSymbolTableRecord
100
AcDbDimStyleTableRecord
  2
ME10_DIM_11
 70
     0
 41
3.0
 42
0.5
 44
1.0
 73
     0
 74
     0
 77
     1
 78
     8
140
3.0
147
2.0
172
     1
173
     1
174
     1
175
     1
176
     2
177
     2
271
     2
178
     4
271
     2
340
717
  0
DIMSTYLE
105
738
102
{ACAD_REACTORS
330
739
102
}
330
A
100
AcDbSymbolTableRecord
100
AcDbDimStyleTableRecord
  2
ME10_DIM_12
 70
     0
 41
3.0
 42
0.5
 44
1.0
 73
     0
 74
     0
 77
     1
 78
     8
140
3.0
147
2.0
172
     1
173
     1
174
     1
175
     1
176
     2
177
     2
271
     2
178
     4
271
     2
340
717
  0
DIMSTYLE
105
743
102
{ACAD_REACTORS
330
744
102
}
330
A
100
AcDbSymbolTableRecord
100
AcDbDimStyleTableRecord
  2
ME10_DIM_13
 70
     0
 41
3.0
 42
0.5
 44
1.0
 73
     0
 74
     0
 77
     1
 78
     8
140
3.0
147
2.0
172
     1
173
     1
174
     1
175
     1
176
     2
177
     2
271
     2
178
     4
271
     2
340
717
  0
DIMSTYLE
105
74E
102
{ACAD_REACTORS
330
74F
102
}
330
A
100
AcDbSymbolTableRecord
100
AcDbDimStyleTableRecord
  2
ME10_DIM_14
 70
     0
 41
3.0
 42
0.5
 44
1.0
 73
     0
 74
     0
 77
     1
 78
     8
140
3.0
147
2.0
172
     1
173
     1
174
     1
175
     1
176
     2
177
     2
271
     2
178
     4
271
     2
340
717
  0
DIMSTYLE
105
759
102
{ACAD_REACTORS
330
75A
102
}
330
A
100
AcDbSymbolTableRecord
100
AcDbDimStyleTableRecord
  2
ME10_DIM_15
 70
     0
 41
3.0
 42
0.5
 44
1.0
 73
     0
 74
     0
 77
     1
 78
     8
140
3.0
147
2.0
172
     1
173
     1
174
     1
175
     1
176
     2
177
     2
271
     2
178
     4
271
     2
340
717
  0
DIMSTYLE
105
764
102
{ACAD_REACTORS
330
765
102
}
330
A
100
AcDbSymbolTableRecord
100
AcDbDimStyleTableRecord
  2
ME10_DIM_16
 70
     0
 41
3.0
 42
0.5
 44
1.0
 73
     0
 74
     0
 77
     1
 78
     8
140
3.0
147
2.0
172
     1
173
     1
174
     1
175
     1
176
     2
177
     2
271
     2
178
     4
271
     2
340
717
  0
DIMSTYLE
105
76F
102
{ACAD_REACTORS
330
770
102
}
330
A
100
AcDbSymbolTableRecord
100
AcDbDimStyleTableRecord
  2
ME10_DIM_17
 70
     0
 41
3.0
 42
0.5
 44
1.0
 73
     0
 74
     0
 77
     1
 78
     8
140
3.0
147
2.0
172
     1
173
     1
174
     1
175
     1
176
     2
177
     2
271
     2
178
     4
271
     2
340
717
  0
DIMSTYLE
105
77C
102
{ACAD_REACTORS
330
77D
102
}
330
A
100
AcDbSymbolTableRecord
100
AcDbDimStyleTableRecord
  2
ME10_DIM_18
 70
     0
 41
3.0
 42
0.5
 44
1.0
 73
     0
 74
     0
 77
     1
 78
     8
140
3.0
147
2.0
172
     1
173
     1
174
     1
175
     1
176
     2
177
     2
271
     2
178
     4
271
     2
340
717
  0
ENDTAB
  0
TABLE
  2
BLOCK_RECORD
  5
1
330
0
100
AcDbSymbolTable
 70
    11
  0
BLOCK_RECORD
  5
1F
330
1
100
AcDbSymbolTableRecord
100
AcDbBlockTableRecord
  2
*Model_Space
340
22
  0
BLOCK_RECORD
  5
1B
330
1
100
AcDbSymbolTableRecord
100
AcDbBlockTableRecord
  2
*Paper_Space
340
1E
  0
BLOCK_RECORD
  5
23
330
1
100
AcDbSymbolTableRecord
100
AcDbBlockTableRecord
  2
*Paper_Space0
340
26
  0
BLOCK_RECORD
  5
4D
330
1
100
AcDbSymbolTableRecord
100
AcDbBlockTableRecord
  2
_formato_A4
340
0
102
{BLKREFS
331
50
102
}
  0
BLOCK_RECORD
  5
719
330
1
100
AcDbSymbolTableRecord
100
AcDbBlockTableRecord
  2
*D2
340
0
  0
BLOCK_RECORD
  5
724
330
1
100
AcDbSymbolTableRecord
100
AcDbBlockTableRecord
  2
*D3
340
0
  0
BLOCK_RECORD
  5
72F
330
1
100
AcDbSymbolTableRecord
100
AcDbBlockTableRecord
  2
*D4
340
0
  0
BLOCK_RECORD
  5
73A
330
1
100
AcDbSymbolTableRecord
100
AcDbBlockTableRecord
  2
*D5
340
0
  0
BLOCK_RECORD
  5
745
330
1
100
AcDbSymbolTableRecord
100
AcDbBlockTableRecord
  2
*D6
340
0
  0
BLOCK_RECORD
  5
750
330
1
100
AcDbSymbolTableRecord
100
AcDbBlockTableRecord
  2
*D7
340
0
  0
BLOCK_RECORD
  5
75B
330
1
100
AcDbSymbolTableRecord
100
AcDbBlockTableRecord
  2
*D8
340
0
  0
BLOCK_RECORD
  5
766
330
1
100
AcDbSymbolTableRecord
100
AcDbBlockTableRecord
  2
*D9
340
0
  0
BLOCK_RECORD
  5
771
330
1
100
AcDbSymbolTableRecord
100
AcDbBlockTableRecord
  2
*D10
340
0
  0
ENDTAB
  0
ENDSEC
  0
SECTION
  2
BLOCKS
  0
BLOCK
  5
20
330
1F
100
AcDbEntity
  8
0
100
AcDbBlockBegin
  2
*Model_Space
 70
     0
 10
0.0
 20
0.0
 30
0.0
  3
*Model_Space
  1

  0
ENDBLK
  5
21
330
1F
100
AcDbEntity
  8
0
100
AcDbBlockEnd
  0
BLOCK
  5
1C
330
1B
100
AcDbEntity
 67
     1
  8
0
100
AcDbBlockBegin
  2
*Paper_Space
 70
     0
 10
0.0
 20
0.0
 30
0.0
  3
*Paper_Space
  1

  0
ENDBLK
  5
1D
330
1B
100
AcDbEntity
 67
     1
  8
0
100
AcDbBlockEnd
  0
BLOCK
  5
24
330
23
100
AcDbEntity
  8
0
100
AcDbBlockBegin
  2
*Paper_Space0
 70
     0
 10
0.0
 20
0.0
 30
0.0
  3
*Paper_Space0
  1

  0
ENDBLK
  5
25
330
23
100
AcDbEntity
  8
0
100
AcDbBlockEnd
  0
BLOCK
  5
4E
330
4D
100
AcDbEntity
  8
0
100
AcDbBlockBegin
  2
_formato_A4
 70
     0
 10
296.9999999999999
 20
0.0
 30
0.0
  3
_formato_A4
  1

  0
LINE
  5
51
330
4D
100
AcDbEntity
  8
1
  6
Continuous
 62
     7
100
AcDbLine
 10
108.0
 20
5.0
 30
0.0
 11
291.9999999999999
 21
5.0
 31
0.0
  0
LINE
  5
52
330
4D
100
AcDbEntity
  8
1
  6
Continuous
 62
     7
100
AcDbLine
 10
108.0
 20
25.0
 30
0.0
 11
108.0
 21
5.0
 31
0.0
  0
LINE
  5
53
330
4D
100
AcDbEntity
  8
1
  6
Continuous
 62
     7
100
AcDbLine
 10
108.0
 20
20.0
 30
0.0
 11
291.9999999999999
 21
20.0
 31
0.0
  0
LINE
  5
54
330
4D
100
AcDbEntity
  8
1
  6
Continuous
 62
     7
100
AcDbLine
 10
4.99999999999989
 20
189.0
 30
0.0
 11
4.99999999999989
 21
5.0
 31
0.0
  0
LINE
  5
55
330
4D
100
AcDbEntity
  8
1
  6
Continuous
 62
     7
100
AcDbLine
 10
133.0
 20
20.0
 30
0.0
 11
133.0
 21
25.0
 31
0.0
  0
LINE
  5
56
330
4D
100
AcDbEntity
  8
1
  6
Continuous
 62
     7
100
AcDbLine
 10
115.0
 20
20.0
 30
0.0
 11
115.0
 21
25.0
 31
0.0
  0
LINE
  5
57
330
4D
100
AcDbEntity
  8
1
  6
Continuous
 62
     7
100
AcDbLine
 10
108.0
 20
25.0
 30
0.0
 11
291.9999999999999
 21
25.0
 31
0.0
  0
LINE
  5
58
102
{ACAD_REACTORS
330
9C
102
}
330
4D
100
AcDbEntity
  8
1
  6
Continuous
 62
     7
100
AcDbLine
 10
282.842874839906
 20
10.5580020803803
 30
0.0
 11
281.5095415065729
 21
9.78877131114973
 31
0.0
  0
LINE
  5
59
102
{ACAD_REACTORS
330
9C
102
}
330
4D
100
AcDbEntity
  8
1
  6
Continuous
 62
     7
100
AcDbLine
 10
281.6763006887431
 20
10.6546365326479
 30
0.0
 11
282.50972653758
 21
11.1354591377462
 31
0.0
  0
LINE
  5
5A
102
{ACAD_REACTORS
330
9C
102
}
330
4D
100
AcDbEntity
  8
1
  6
Continuous
 62
     7
100
AcDbLine
 10
281.6763006887431
 20
12.1666666666666
 30
0.0
 11
281.6763006887431
 21
10.6546365326479
 31
0.0
  0
LINE
  5
5B
102
{ACAD_REACTORS
330
9C
102
}
330
4D
100
AcDbEntity
  8
1
  6
Continuous
 62
     7
100
AcDbLine
 10
282.6763006887431
 20
12.1666666666666
 30
0.0
 11
281.6763006887431
 21
12.1666666666666
 31
0.0
  0
LINE
  5
5C
102
{ACAD_REACTORS
330
9C
102
}
330
4D
100
AcDbEntity
  8
1
  6
Continuous
 62
     7
100
AcDbLine
 10
281.6763006887431
 20
12.8333333333333
 30
0.0
 11
282.6763006887431
 21
12.8333333333333
 31
0.0
  0
LINE
  5
5D
102
{ACAD_REACTORS
330
9C
102
}
330
4D
100
AcDbEntity
  8
1
  6
Continuous
 62
     7
100
AcDbLine
 10
281.6763006887431
 20
14.345363467352
 30
0.0
 11
281.6763006887431
 21
12.8333333333333
 31
0.0
  0
LINE
  5
5E
102
{ACAD_REACTORS
330
9C
102
}
330
4D
100
AcDbEntity
  8
1
  6
Continuous
 62
     7
100
AcDbLine
 10
282.50972653758
 20
13.8645408622538
 30
0.0
 11
281.6763006887431
 21
14.345363467352
 31
0.0
  0
LINE
  5
5F
102
{ACAD_REACTORS
330
9C
102
}
330
4D
100
AcDbEntity
  8
1
  6
Continuous
 62
     7
100
AcDbLine
 10
281.5095415065729
 20
15.2112286888503
 30
0.0
 11
282.842874839906
 21
14.4419979196194
 31
0.0
  0
LINE
  5
60
102
{ACAD_REACTORS
330
9D
102
}
330
4D
100
AcDbEntity
  8
1
  6
Continuous
 62
     7
100
AcDbLine
 10
274.3429673554089
 20
10.8467306090632
 30
0.0
 11
274.3429673554089
 21
14.1532693909367
 31
0.0
  0
LINE
  5
61
102
{ACAD_REACTORS
330
9D
102
}
330
4D
100
AcDbEntity
  8
1
  6
Continuous
 62
     7
100
AcDbLine
 10
275.009634022076
 20
11.0392519172633
 30
0.0
 11
275.009634022076
 21
10.8467306090632
 31
0.0
  0
LINE
  5
62
102
{ACAD_REACTORS
330
9D
102
}
330
4D
100
AcDbEntity
  8
1
  6
Continuous
 62
     7
100
AcDbLine
 10
275.009634022076
 20
14.1532693909367
 30
0.0
 11
275.009634022076
 21
11.0392519172633
 31
0.0
  0
LINE
  5
63
102
{ACAD_REACTORS
330
9E
102
}
330
4D
100
AcDbEntity
  8
1
  6
Continuous
 62
     7
100
AcDbLine
 10
278.176393204246
 20
8.44261746499581
 30
0.0
 11
276.0098190530829
 21
9.69256409066691
 31
0.0
  0
LINE
  5
64
102
{ACAD_REACTORS
330
9E
102
}
330
4D
100
AcDbEntity
  8
1
  6
Continuous
 62
     7
100
AcDbLine
 10
276.3429673554089
 20
10.2700211480327
 30
0.0
 11
278.5095415065729
 21
9.0200745223616
 31
0.0
  0
LINE
  5
65
102
{ACAD_REACTORS
330
9E
102
}
330
4D
100
AcDbEntity
  8
1
  6
Continuous
 62
     7
100
AcDbLine
 10
276.3429673554089
 20
14.9225001601674
 30
0.0
 11
276.3429673554089
 21
10.2700211480327
 31
0.0
  0
LINE
  5
66
102
{ACAD_REACTORS
330
9E
102
}
330
4D
100
AcDbEntity
  8
1
  6
Continuous
 62
     7
100
AcDbLine
 10
275.6763006887431
 20
10.2700211480326
 30
0.0
 11
275.6763006887431
 21
14.9225001601674
 31
0.0
  0
LINE
  5
67
102
{ACAD_REACTORS
330
9F
102
}
330
4D
100
AcDbEntity
  8
1
  6
Continuous
 62
     7
100
AcDbLine
 10
279.848533671786
 20
15.8637004182723
 30
0.0
 11
278.6763006887431
 21
13.8333333333333
 31
0.0
  0
LINE
  5
68
102
{ACAD_REACTORS
330
9F
102
}
330
4D
100
AcDbEntity
  8
1
  6
Continuous
 62
     7
100
AcDbLine
 10
280.3429673554089
 20
9.3082690706018
 30
0.0
 11
280.3429673554089
 21
15.7312173120346
 31
0.0
  0
LINE
  5
69
102
{ACAD_REACTORS
330
9F
102
}
330
4D
100
AcDbEntity
  8
1
  6
Continuous
 62
     7
100
AcDbLine
 10
279.6763006887431
 20
12.5
 30
0.0
 11
279.6763006887431
 21
9.3082690706018
 31
0.0
  0
LINE
  5
6A
102
{ACAD_REACTORS
330
9F
102
}
330
4D
100
AcDbEntity
  8
1
  6
Continuous
 62
     7
100
AcDbLine
 10
277.6763006887431
 20
10.8475850726329
 30
0.0
 11
277.6763006887431
 21
12.5
 31
0.0
  0
LINE
  5
6B
102
{ACAD_REACTORS
330
9F
102
}
330
4D
100
AcDbEntity
  8
1
  6
Continuous
 62
     7
100
AcDbLine
 10
277.009634022076
 20
12.5
 30
0.0
 11
277.009634022076
 21
10.8475850726329
 31
0.0
  0
LINE
  5
6C
102
{ACAD_REACTORS
330
9F
102
}
330
4D
100
AcDbEntity
  8
1
  6
Continuous
 62
     7
100
AcDbLine
 10
277.5040677056999
 20
15.8637004182723
 30
0.0
 11
278.6763006887431
 21
13.8333333333333
 31
0.0
  0
LINE
  5
6D
102
{ACAD_REACTORS
330
9F
102
}
330
4D
100
AcDbEntity
  8
1
  6
Continuous
 62
     7
100
AcDbLine
 10
277.009634022076
 20
12.5
 30
0.0
 11
277.009634022076
 21
15.7312173120346
 31
0.0
  0
LINE
  5
6E
330
4D
100
AcDbEntity
  8
1
  6
Continuous
 62
     7
100
AcDbLine
 10
278.6763006887431
 20
7.5
 30
0.0
 11
270.2598654136011
 21
12.3556357356586
 31
0.0
  0
LINE
  5
6F
330
4D
100
AcDbEntity
  8
1
  6
Continuous
 62
     7
100
AcDbLine
 10
287.092735963884
 20
12.3556357356586
 30
0.0
 11
278.6763006887431
 21
7.5
 31
0.0
  0
LINE
  5
70
330
4D
100
AcDbEntity
  8
1
  6
Continuous
 62
     7
100
AcDbLine
 10
278.6763006887431
 20
17.5
 30
0.0
 11
287.092735963884
 21
12.6443642643413
 31
0.0
  0
LINE
  5
71
330
4D
100
AcDbEntity
  8
1
  6
Continuous
 62
     7
100
AcDbLine
 10
270.2598654136011
 20
12.6443642643413
 30
0.0
 11
278.6763006887431
 21
17.5
 31
0.0
  0
LINE
  5
72
102
{ACAD_REACTORS
330
9F
102
}
330
4D
100
AcDbEntity
  8
1
  6
Continuous
 62
     7
100
AcDbLine
 10
277.6763006887431
 20
14.2320508075688
 30
0.0
 11
277.6763006887431
 21
12.5
 31
0.0
  0
LINE
  5
73
102
{ACAD_REACTORS
330
9F
102
}
330
4D
100
AcDbEntity
  8
1
  6
Continuous
 62
     7
100
AcDbLine
 10
278.531963121445
 20
12.75
 30
0.0
 11
277.6763006887431
 21
14.2320508075688
 31
0.0
  0
LINE
  5
74
102
{ACAD_REACTORS
330
9F
102
}
330
4D
100
AcDbEntity
  8
1
  6
Continuous
 62
     7
100
AcDbLine
 10
279.6763006887431
 20
14.2320508075688
 30
0.0
 11
278.82063825604
 21
12.75
 31
0.0
  0
LINE
  5
75
102
{ACAD_REACTORS
330
9F
102
}
330
4D
100
AcDbEntity
  8
1
  6
Continuous
 62
     7
100
AcDbLine
 10
279.6763006887431
 20
12.5
 30
0.0
 11
279.6763006887431
 21
14.2320508075688
 31
0.0
  0
LINE
  5
76
102
{ACAD_REACTORS
330
9C
102
}
330
4D
100
AcDbEntity
  8
1
  6
Continuous
 62
     7
100
AcDbLine
 10
281.009634022076
 20
10.0774998398326
 30
0.0
 11
281.009634022076
 21
14.9225001601674
 31
0.0
  0
LINE
  5
77
330
4D
100
AcDbEntity
  8
1
  6
Continuous
 62
     7
100
AcDbLine
 10
291.9999999999999
 20
189.0
 30
0.0
 11
4.99999999999989
 21
189.0
 31
0.0
  0
LINE
  5
78
330
4D
100
AcDbEntity
  8
1
  6
Continuous
 62
     7
100
AcDbLine
 10
291.9999999999999
 20
5.0
 30
0.0
 11
291.9999999999999
 21
189.0
 31
0.0
  0
LINE
  5
79
330
4D
100
AcDbEntity
  8
1
  6
Continuous
 62
     7
100
AcDbLine
 10
4.99999999999989
 20
5.0
 30
0.0
 11
108.0
 21
5.0
 31
0.0
  0
LINE
  5
7A
330
4D
100
AcDbEntity
  8
1
  6
Continuous
 62
     7
100
AcDbLine
 10
296.9999999999999
 20
0.0
 30
0.0
 11
296.9999999999999
 21
210.0
 31
0.0
  0
LINE
  5
7B
330
4D
100
AcDbEntity
  8
1
  6
Continuous
 62
     7
100
AcDbLine
 10
296.9999999999999
 20
210.0
 30
0.0
 11
0.0
 21
210.0
 31
0.0
  0
LINE
  5
7C
330
4D
100
AcDbEntity
  8
1
  6
Continuous
 62
     7
100
AcDbLine
 10
0.0
 20
210.0
 30
0.0
 11
0.0
 21
0.0
 31
0.0
  0
LINE
  5
7D
330
4D
100
AcDbEntity
  8
1
  6
Continuous
 62
     7
100
AcDbLine
 10
0.0
 20
0.0
 30
0.0
 11
296.9999999999999
 21
0.0
 31
0.0
  0
LINE
  5
7E
330
4D
100
AcDbEntity
  8
1
  6
Continuous
 62
     7
100
AcDbLine
 10
148.5
 20
210.0
 30
0.0
 11
148.5
 21
195.0
 31
0.0
  0
LINE
  5
7F
330
4D
100
AcDbEntity
  8
1
  6
Continuous
 62
     7
100
AcDbLine
 10
138.0
 20
20.0
 30
0.0
 11
138.0
 21
5.0
 31
0.0
  0
LINE
  5
80
330
4D
100
AcDbEntity
  8
1
  6
Continuous
 62
     7
100
AcDbLine
 10
265.352601377485
 20
20.0
 30
0.0
 11
265.352601377485
 21
5.0
 31
0.0
  0
LINE
  5
81
330
4D
100
AcDbEntity
  8
1
  6
Continuous
 62
     7
100
AcDbLine
 10
247.9999999999999
 20
20.0
 30
0.0
 11
247.9999999999999
 21
5.0
 31
0.0
  0
LINE
  5
82
330
4D
100
AcDbEntity
  8
1
  6
Continuous
 62
     7
100
AcDbLine
 10
108.0
 20
14.9999999999999
 30
0.0
 11
138.0
 21
14.9999999999999
 31
0.0
  0
LINE
  5
83
330
4D
100
AcDbEntity
  8
1
  6
Continuous
 62
     7
100
AcDbLine
 10
108.0
 20
9.99999999999986
 30
0.0
 11
138.0
 21
9.99999999999986
 31
0.0
  0
ARC
  5
84
102
{ACAD_REACTORS
330
9C
102
}
330
4D
100
AcDbEntity
  8
1
  6
Continuous
 62
     7
100
AcDbCircle
 10
282.6763006887431
 20
10.8467306090632
 30
0.0
 40
0.3333333333332335
100
AcDbArc
 50
299.9816393688079
 51
119.9816393688249
  0
ARC
  5
85
102
{ACAD_REACTORS
330
9C
102
}
330
4D
100
AcDbEntity
  8
1
  6
Continuous
 62
     7
100
AcDbCircle
 10
282.6763006887431
 20
12.5
 30
0.0
 40
0.3333333333333997
100
AcDbArc
 50
270.0
 51
90.0
  0
ARC
  5
86
102
{ACAD_REACTORS
330
9C
102
}
330
4D
100
AcDbEntity
  8
1
  6
Continuous
 62
     7
100
AcDbCircle
 10
282.6763006887431
 20
14.1532693909367
 30
0.0
 40
0.3333333333333172
100
AcDbArc
 50
240.0183606311666
 51
60.01836063117491
  0
ARC
  5
87
102
{ACAD_REACTORS
330
9D
102
}
330
4D
100
AcDbEntity
  8
1
  6
Continuous
 62
     7
100
AcDbCircle
 10
274.6763006887431
 20
10.8467306090632
 30
0.0
 40
0.333333333334167
100
AcDbArc
 50
180.0
 51
0.0
  0
ARC
  5
88
102
{ACAD_REACTORS
330
9D
102
}
330
4D
100
AcDbEntity
  8
1
  6
Continuous
 62
     7
100
AcDbCircle
 10
274.6763006887431
 20
14.1532693909367
 30
0.0
 40
0.3333333333329165
100
AcDbArc
 50
0.0
 51
180.0
  0
ARC
  5
89
102
{ACAD_REACTORS
330
9E
102
}
330
4D
100
AcDbEntity
  8
1
  6
Continuous
 62
     7
100
AcDbCircle
 10
278.3429673554089
 20
8.7313459936787
 30
0.0
 40
0.3333333333332227
100
AcDbArc
 50
240.0183606311911
 51
60.01836063103995
  0
ARC
  5
8A
102
{ACAD_REACTORS
330
9E
102
}
330
4D
100
AcDbEntity
  8
1
  6
Continuous
 62
     7
100
AcDbCircle
 10
276.009634022076
 20
14.9225001601674
 30
0.0
 40
0.3333333333329165
100
AcDbArc
 50
0.0
 51
180.0
  0
ARC
  5
8B
102
{ACAD_REACTORS
330
9F
102
}
330
4D
100
AcDbEntity
  8
1
  6
Continuous
 62
     7
100
AcDbCircle
 10
280.0780011429339
 20
15.7312173120346
 30
0.0
 40
0.2649662124750307
100
AcDbArc
 50
0.0
 51
149.9999999999599
  0
ARC
  5
8C
102
{ACAD_REACTORS
330
9F
102
}
330
4D
100
AcDbEntity
  8
1
  6
Continuous
 62
     7
100
AcDbCircle
 10
280.009634022076
 20
9.3082690706018
 30
0.0
 40
0.3333333333329165
100
AcDbArc
 50
180.0
 51
0.0
  0
ARC
  5
8D
102
{ACAD_REACTORS
330
9F
102
}
330
4D
100
AcDbEntity
  8
1
  6
Continuous
 62
     7
100
AcDbCircle
 10
277.3429673554089
 20
10.8475850726329
 30
0.0
 40
0.3333333333329165
100
AcDbArc
 50
180.0
 51
0.0
  0
ARC
  5
8E
102
{ACAD_REACTORS
330
9F
102
}
330
4D
100
AcDbEntity
  8
1
  6
Continuous
 62
     7
100
AcDbCircle
 10
277.274600234551
 20
15.7312173120346
 30
0.0
 40
0.264966212476014
100
AcDbArc
 50
29.99999999992336
 51
180.0
  0
ARC
  5
8F
102
{ACAD_REACTORS
330
9C
102
}
330
4D
100
AcDbEntity
  8
1
  6
Continuous
 62
     7
100
AcDbCircle
 10
281.3429673554089
 20
10.0774998398326
 30
0.0
 40
0.3333333333329165
100
AcDbArc
 50
180.0
 51
299.9816393689629
  0
ARC
  5
90
102
{ACAD_REACTORS
330
9C
102
}
330
4D
100
AcDbEntity
  8
1
  6
Continuous
 62
     7
100
AcDbCircle
 10
281.3429673554089
 20
14.9225001601674
 30
0.0
 40
0.3333333333337433
100
AcDbArc
 50
60.01836063103966
 51
180.0
  0
ARC
  5
91
330
4D
100
AcDbEntity
  8
1
  6
Continuous
 62
     7
100
AcDbCircle
 10
287.009448888303
 20
12.5
 30
0.0
 40
0.1666666666663598
100
AcDbArc
 50
299.9816393686896
 51
60.01836063129329
  0
ARC
  5
92
330
4D
100
AcDbEntity
  8
1
  6
Continuous
 62
     7
100
AcDbCircle
 10
270.343152489183
 20
12.5
 30
0.0
 40
0.1666666666666998
100
AcDbArc
 50
119.9816393689606
 51
240.0183606310565
  0
ARC
  5
93
102
{ACAD_REACTORS
330
9E
102
}
330
4D
100
AcDbEntity
  8
1
  6
Continuous
 62
     7
100
AcDbCircle
 10
276.3429673554089
 20
10.2700211480327
 30
0.0
 40
0.666666666665833
100
AcDbArc
 50
180.0000000000087
 51
240.018360631179
  0
ARC
  5
94
102
{ACAD_REACTORS
330
9F
102
}
330
4D
100
AcDbEntity
  8
1
  6
Continuous
 62
     7
100
AcDbCircle
 10
278.6763006887431
 20
12.8333333333333
 30
0.0
 40
0.1666666666672217
100
AcDbArc
 50
209.9999999998767
 51
329.9999999999279
  0
MTEXT
  5
96
330
4D
100
AcDbEntity
  8
1
 62
     7
100
AcDbMText
 10
256.6763006887431
 20
16.260639420756
 30
0.0
 40
3.0
 41
0.0
 71
     5
 72
     1
  1
Scale
  7
CONVERTER_11
 73
     1
 44
0.75727272727273
  0
MTEXT
  5
97
330
4D
100
AcDbEntity
  8
1
 62
     7
100
AcDbMText
 10
151.5
 20
194.0
 30
0.0
 40
4.0
 41
0.0
 71
     5
 72
     1
  1
Diritti riservati      All rights reserved
  7
CONVERTER_11
 73
     1
 44
0.75727272727273
  0
MTEXT
  5
99
330
4D
100
AcDbEntity
  8
1
 62
     7
100
AcDbMText
 10
123.0
 20
17.4999999999999
 30
0.0
 40
2.5
 41
0.0
 71
     5
 72
     1
  1
dimensions in mm
  7
CONVERTER_12
 73
     1
 44
0.75727272727273
  0
MTEXT
  5
9A
330
4D
100
AcDbEntity
  8
1
 62
     7
100
AcDbMText
 10
109.0
 20
12.4999999999999
 30
0.0
 40
3.0
 41
0.0
 71
     4
 72
     1
  1
Date
  7
CONVERTER_11
 73
     1
 44
0.75727272727273
  0
MTEXT
  5
9B
330
4D
100
AcDbEntity
  8
1
 62
     7
100
AcDbMText
 10
109.0
 20
7.49999999999987
 30
0.0
 40
3.0
 41
0.0
 71
     4
 72
     1
  1
Sign.
  7
CONVERTER_11
 73
     1
 44
0.75727272727273
  0
HATCH
  5
9C
330
4D
100
AcDbEntity
  8
1
  6
Continuous
 62
     7
100
AcDbHatch
 10
0.0
 20
0.0
 30
0.0
210
0.0
220
0.0
230
1.0
  2
SOLID
 70
     1
 71
     1
 91
        1
 92
        1
 93
       14
 72
     2
 10
281.3429673554089
 20
14.9225001601674
 40
0.3333333333337433
 50
60.01836063103966
 51
180.0
 73
     1
 72
     1
 10
281.009634022076
 20
14.9225001601674
 11
281.009634022076
 21
10.0774998398326
 72
     2
 10
281.3429673554089
 20
10.0774998398326
 40
0.3333333333329165
 50
180.0
 51
299.9816393689629
 73
     1
 72
     1
 10
281.5095415065729
 20
9.78877131114973
 11
282.842874839906
 21
10.5580020803803
 72
     2
 10
282.6763006887431
 20
10.8467306090632
 40
0.3333333333332335
 50
299.9816393688079
 51
479.9816393688249
 73
     1
 72
     1
 10
282.50972653758
 20
11.1354591377462
 11
281.6763006887431
 21
10.6546365326479
 72
     1
 10
281.6763006887431
 20
10.6546365326479
 11
281.6763006887431
 21
12.1666666666666
 72
     1
 10
281.6763006887431
 20
12.1666666666666
 11
282.6763006887431
 21
12.1666666666666
 72
     2
 10
282.6763006887431
 20
12.5
 40
0.3333333333333997
 50
270.0
 51
450.0
 73
     1
 72
     1
 10
282.6763006887431
 20
12.8333333333333
 11
281.6763006887431
 21
12.8333333333333
 72
     1
 10
281.6763006887431
 20
12.8333333333333
 11
281.6763006887431
 21
14.345363467352
 72
     1
 10
281.6763006887431
 20
14.345363467352
 11
282.50972653758
 21
13.8645408622538
 72
     2
 10
282.6763006887431
 20
14.1532693909367
 40
0.3333333333333172
 50
240.0183606311666
 51
420.0183606311749
 73
     1
 72
     1
 10
282.842874839906
 20
14.4419979196194
 11
281.5095415065729
 21
15.2112286888503
 97
       14
330
86
330
5E
330
5D
330
5C
330
85
330
5B
330
5A
330
59
330
84
330
58
330
8F
330
76
330
90
330
5F
 75
     0
 76
     1
 98
        1
 10
0.0
 20
0.0
  0
HATCH
  5
9D
330
4D
100
AcDbEntity
  8
1
  6
Continuous
 62
     7
100
AcDbHatch
 10
0.0
 20
0.0
 30
0.0
210
0.0
220
0.0
230
1.0
  2
SOLID
 70
     1
 71
     1
 91
        1
 92
        1
 93
        5
 72
     2
 10
274.6763006887431
 20
14.1532693909367
 40
0.3333333333329165
 50
0.0
 51
180.0
 73
     1
 72
     1
 10
274.3429673554089
 20
14.1532693909367
 11
274.3429673554089
 21
10.8467306090632
 72
     2
 10
274.6763006887431
 20
10.8467306090632
 40
0.333333333334167
 50
180.0
 51
360.0
 73
     1
 72
     1
 10
275.009634022076
 20
10.8467306090632
 11
275.009634022076
 21
11.0392519172633
 72
     1
 10
275.009634022076
 20
11.0392519172633
 11
275.009634022076
 21
14.1532693909367
 97
        5
330
88
330
60
330
87
330
61
330
62
 75
     0
 76
     1
 98
        1
 10
0.0
 20
0.0
  0
HATCH
  5
9E
330
4D
100
AcDbEntity
  8
1
  6
Continuous
 62
     7
100
AcDbHatch
 10
0.0
 20
0.0
 30
0.0
210
0.0
220
0.0
230
1.0
  2
SOLID
 70
     1
 71
     1
 91
        1
 92
        1
 93
        7
 72
     2
 10
276.009634022076
 20
14.9225001601674
 40
0.3333333333329165
 50
0.0
 51
180.0
 73
     1
 72
     1
 10
275.6763006887431
 20
14.9225001601674
 11
275.6763006887431
 21
10.2700211480326
 72
     2
 10
276.3429673554089
 20
10.2700211480327
 40
0.666666666665833
 50
180.0000000000087
 51
240.018360631179
 73
     1
 72
     1
 10
276.0098190530829
 20
9.69256409066691
 11
278.176393204246
 21
8.44261746499581
 72
     2
 10
278.3429673554089
 20
8.731345993678698
 40
0.3333333333332227
 50
240.0183606311911
 51
420.01836063104
 73
     1
 72
     1
 10
278.5095415065729
 20
9.0200745223616
 11
276.3429673554089
 21
10.2700211480327
 72
     1
 10
276.3429673554089
 20
10.2700211480327
 11
276.3429673554089
 21
14.9225001601674
 97
        7
330
8A
330
66
330
93
330
63
330
89
330
64
330
65
 75
     0
 76
     1
 98
        1
 10
0.0
 20
0.0
  0
HATCH
  5
9F
330
4D
100
AcDbEntity
  8
1
  6
Continuous
 62
     7
100
AcDbHatch
 10
0.0
 20
0.0
 30
0.0
210
0.0
220
0.0
230
1.0
  2
SOLID
 70
     1
 71
     1
 91
        1
 92
        1
 93
       16
 72
     2
 10
280.0780011429339
 20
15.7312173120346
 40
0.2649662124750307
 50
210.0000000000401
 51
360.0
 73
     0
 72
     1
 10
280.3429673554089
 20
15.7312173120346
 11
280.3429673554089
 21
9.3082690706018
 72
     2
 10
280.009634022076
 20
9.3082690706018
 40
0.3333333333329165
 50
0.0
 51
180.0
 73
     0
 72
     1
 10
279.6763006887431
 20
9.3082690706018
 11
279.6763006887431
 21
12.5
 72
     1
 10
279.6763006887431
 20
12.5
 11
279.6763006887431
 21
14.2320508075688
 72
     1
 10
279.6763006887431
 20
14.2320508075688
 11
278.82063825604
 21
12.75
 72
     2
 10
278.6763006887431
 20
12.8333333333333
 40
0.1666666666672217
 50
30.00000000007208
 51
150.0000000001233
 73
     0
 72
     1
 10
278.531963121445
 20
12.75
 11
277.6763006887431
 21
14.2320508075688
 72
     1
 10
277.6763006887431
 20
14.2320508075688
 11
277.6763006887431
 21
12.5
 72
     1
 10
277.6763006887431
 20
12.5
 11
277.6763006887431
 21
10.8475850726329
 72
     2
 10
277.3429673554089
 20
10.8475850726329
 40
0.3333333333329165
 50
0.0
 51
180.0
 73
     0
 72
     1
 10
277.009634022076
 20
10.8475850726329
 11
277.009634022076
 21
12.5
 72
     1
 10
277.009634022076
 20
12.5
 11
277.009634022076
 21
15.7312173120346
 72
     2
 10
277.274600234551
 20
15.7312173120346
 40
0.264966212476014
 50
180.0
 51
330.0000000000766
 73
     0
 72
     1
 10
277.5040677056999
 20
15.8637004182723
 11
278.6763006887431
 21
13.8333333333333
 72
     1
 10
278.6763006887431
 20
13.8333333333333
 11
279.848533671786
 21
15.8637004182723
 97
       16
330
6C
330
8E
330
6D
330
6B
330
8D
330
6A
330
72
330
73
330
94
330
74
330
75
330
69
330
8C
330
68
330
8B
330
67
 75
     0
 76
     1
 98
        1
 10
0.0
 20
0.0
  0
ENDBLK
  5
4F
330
4D
100
AcDbEntity
  8
0
100
AcDbBlockEnd
  0
BLOCK
  5
720
330
719
100
AcDbEntity
  8
0
100
AcDbBlockBegin
  2
*D2
 70
     1
 10
0.0
 20
0.0
 30
0.0
  3
*D2
  1

  0
LINE
  5
71A
330
719
100
AcDbEntity
  8
1
  6
Continuous
 62
     2
100
AcDbLine
 10
146.281048724795
 20
173.655369188313
 30
0.0
 11
27.41314878136291
 21
173.655369188313
 31
0.0
  0
LINE
  5
71B
330
719
100
AcDbEntity
  8
1
  6
Continuous
 62
     2
100
AcDbLine
 10
146.281048724795
 20
120.6846039540754
 30
0.0
 11
146.281048724795
 21
174.655369188313
 31
0.0
  0
LINE
  5
71C
330
719
100
AcDbEntity
  8
1
  6
Continuous
 62
     2
100
AcDbLine
 10
27.41314878136291
 20
119.6846039540754
 30
0.0
 11
27.41314878136291
 21
174.655369188313
 31
0.0
  0
SOLID
  5
71D
330
719
100
AcDbEntity
  8
1
 62
     2
100
AcDbTrace
 10
143.281048724795
 20
173.2604116955508
 30
0.0
 11
143.281048724795
 21
174.0503266810752
 31
0.0
 12
146.281048724795
 22
173.655369188313
 32
0.0
 13
146.281048724795
 23
173.655369188313
 33
0.0
  0
SOLID
  5
71E
330
719
100
AcDbEntity
  8
1
 62
     2
100
AcDbTrace
 10
30.41314878136291
 20
174.0503266810752
 30
0.0
 11
30.41314878136291
 21
173.2604116955508
 31
0.0
 12
27.41314878136291
 22
173.655369188313
 32
0.0
 13
27.41314878136291
 23
173.655369188313
 33
0.0
  0
MTEXT
  5
71F
330
719
100
AcDbEntity
  8
1
 62
     4
100
AcDbMText
 10
83.69709875307893
 20
175.655369188313
 30
0.0
 40
3.0
 41
0.0
 71
     7
 72
     1
  1
122
  7
CONVERTER_13
 11
0.9999999999970619
 21
2.424068405545306E-6
 31
0.0
 73
     1
 44
0.60024009603842
  0
ENDBLK
  5
721
330
719
100
AcDbEntity
  8
0
100
AcDbBlockEnd
  0
BLOCK
  5
72B
330
724
100
AcDbEntity
  8
0
100
AcDbBlockBegin
  2
*D3
 70
     1
 10
0.0
 20
0.0
 30
0.0
  3
*D3
  1

  0
LINE
  5
725
330
724
100
AcDbEntity
  8
1
  6
Continuous
 62
     2
100
AcDbLine
 10
45.84709875307897
 20
50.6
 30
0.0
 11
127.847098753079
 21
50.6
 31
0.0
  0
LINE
  5
726
330
724
100
AcDbEntity
  8
1
  6
Continuous
 62
     2
100
AcDbLine
 10
45.84709875307897
 20
61.18460395407583
 30
0.0
 11
45.84709875307897
 21
49.6
 31
0.0
  0
LINE
  5
727
330
724
100
AcDbEntity
  8
1
  6
Continuous
 62
     2
100
AcDbLine
 10
127.847098753079
 20
61.18460395407583
 30
0.0
 11
127.847098753079
 21
49.6
 31
0.0
  0
SOLID
  5
728
330
724
100
AcDbEntity
  8
1
 62
     2
100
AcDbTrace
 10
48.84709875307897
 20
50.99495749276219
 30
0.0
 11
48.84709875307897
 21
50.20504250723781
 31
0.0
 12
45.84709875307897
 22
50.6
 32
0.0
 13
45.84709875307897
 23
50.6
 33
0.0
  0
SOLID
  5
729
330
724
100
AcDbEntity
  8
1
 62
     2
100
AcDbTrace
 10
124.847098753079
 20
50.20504250723781
 30
0.0
 11
124.847098753079
 21
50.99495749276219
 31
0.0
 12
127.847098753079
 22
50.6
 32
0.0
 13
127.847098753079
 23
50.6
 33
0.0
  0
MTEXT
  5
72A
330
724
100
AcDbEntity
  8
1
 62
     4
100
AcDbMText
 10
84.44709875307896
 20
52.6
 30
0.0
 40
3.0
 41
0.0
 71
     7
 72
     1
  1
82
  7
CONVERTER_13
 11
0.9999999999970619
 21
2.424068405545306E-6
 31
0.0
 73
     1
 44
0.60024009603842
  0
ENDBLK
  5
72C
330
724
100
AcDbEntity
  8
0
100
AcDbBlockEnd
  0
BLOCK
  5
736
330
72F
100
AcDbEntity
  8
0
100
AcDbBlockBegin
  2
*D4
 70
     1
 10
0.0
 20
0.0
 30
0.0
  3
*D4
  1

  0
LINE
  5
730
330
72F
100
AcDbEntity
  8
1
  6
Continuous
 62
     2
100
AcDbLine
 10
133.597098753079
 20
39.0
 30
0.0
 11
40.09709875307897
 21
39.0
 31
0.0
  0
LINE
  5
731
330
72F
100
AcDbEntity
  8
1
  6
Continuous
 62
     2
100
AcDbLine
 10
133.597098753079
 20
63.68460395407583
 30
0.0
 11
133.597098753079
 21
38.0
 31
0.0
  0
LINE
  5
732
330
72F
100
AcDbEntity
  8
1
  6
Continuous
 62
     2
100
AcDbLine
 10
40.09709875307897
 20
63.68460395407583
 30
0.0
 11
40.09709875307897
 21
38.0
 31
0.0
  0
SOLID
  5
733
330
72F
100
AcDbEntity
  8
1
 62
     2
100
AcDbTrace
 10
130.597098753079
 20
38.60504250723781
 30
0.0
 11
130.597098753079
 21
39.39495749276219
 31
0.0
 12
133.597098753079
 22
39.0
 32
0.0
 13
133.597098753079
 23
39.0
 33
0.0
  0
SOLID
  5
734
330
72F
100
AcDbEntity
  8
1
 62
     2
100
AcDbTrace
 10
43.09709875307897
 20
39.39495749276219
 30
0.0
 11
43.09709875307897
 21
38.60504250723781
 31
0.0
 12
40.09709875307897
 22
39.0
 32
0.0
 13
40.09709875307897
 23
39.0
 33
0.0
  0
MTEXT
  5
735
330
72F
100
AcDbEntity
  8
1
 62
     4
100
AcDbMText
 10
82.72209875307897
 20
41.3
 30
0.0
 40
3.0
 41
0.0
 71
     7
 72
     1
  1
93,5
  7
CONVERTER_13
 11
0.9999999999970619
 21
2.424068405545306E-6
 31
0.0
 73
     1
 44
0.60024009603842
  0
ENDBLK
  5
737
330
72F
100
AcDbEntity
  8
0
100
AcDbBlockEnd
  0
BLOCK
  5
741
330
73A
100
AcDbEntity
  8
0
100
AcDbBlockBegin
  2
*D5
 70
     1
 10
0.0
 20
0.0
 30
0.0
  3
*D5
  1

  0
LINE
  5
73B
330
73A
100
AcDbEntity
  8
1
  6
Continuous
 62
     2
100
AcDbLine
 10
201.432840245408
 20
50.6
 30
0.0
 11
246.432840245408
 21
50.6
 31
0.0
  0
LINE
  5
73C
330
73A
100
AcDbEntity
  8
1
  6
Continuous
 62
     2
100
AcDbLine
 10
201.432840245408
 20
61.18460395407583
 30
0.0
 11
201.432840245408
 21
49.6
 31
0.0
  0
LINE
  5
73D
330
73A
100
AcDbEntity
  8
1
  6
Continuous
 62
     2
100
AcDbLine
 10
246.432840245408
 20
61.18460395407583
 30
0.0
 11
246.432840245408
 21
49.6
 31
0.0
  0
SOLID
  5
73E
330
73A
100
AcDbEntity
  8
1
 62
     2
100
AcDbTrace
 10
204.432840245408
 20
50.99495749276219
 30
0.0
 11
204.432840245408
 21
50.20504250723781
 31
0.0
 12
201.432840245408
 22
50.6
 32
0.0
 13
201.432840245408
 23
50.6
 33
0.0
  0
SOLID
  5
73F
330
73A
100
AcDbEntity
  8
1
 62
     2
100
AcDbTrace
 10
243.432840245408
 20
50.20504250723781
 30
0.0
 11
243.432840245408
 21
50.99495749276219
 31
0.0
 12
246.432840245408
 22
50.6
 32
0.0
 13
246.432840245408
 23
50.6
 33
0.0
  0
MTEXT
  5
740
330
73A
100
AcDbEntity
  8
1
 62
     4
100
AcDbMText
 10
221.682840245408
 20
52.6
 30
0.0
 40
3.0
 41
0.0
 71
     7
 72
     1
  1
45
  7
CONVERTER_13
 11
0.9999999999970619
 21
2.424068405545306E-6
 31
0.0
 73
     1
 44
0.60024009603842
  0
ENDBLK
  5
742
330
73A
100
AcDbEntity
  8
0
100
AcDbBlockEnd
  0
BLOCK
  5
74C
330
745
100
AcDbEntity
  8
0
100
AcDbBlockBegin
  2
*D6
 70
     1
 10
0.0
 20
0.0
 30
0.0
  3
*D6
  1

  0
LINE
  5
746
330
745
100
AcDbEntity
  8
1
  6
Continuous
 62
     2
100
AcDbLine
 10
195.432840245406
 20
39.0
 30
0.0
 11
252.432840245406
 21
39.0
 31
0.0
  0
LINE
  5
747
330
745
100
AcDbEntity
  8
1
  6
Continuous
 62
     2
100
AcDbLine
 10
195.432840245406
 20
63.68460395407583
 30
0.0
 11
195.432840245406
 21
38.0
 31
0.0
  0
LINE
  5
748
330
745
100
AcDbEntity
  8
1
  6
Continuous
 62
     2
100
AcDbLine
 10
252.432840245406
 20
63.68460395407583
 30
0.0
 11
252.432840245406
 21
38.0
 31
0.0
  0
SOLID
  5
749
330
745
100
AcDbEntity
  8
1
 62
     2
100
AcDbTrace
 10
198.432840245406
 20
39.39495749276219
 30
0.0
 11
198.432840245406
 21
38.60504250723781
 31
0.0
 12
195.432840245406
 22
39.0
 32
0.0
 13
195.432840245406
 23
39.0
 33
0.0
  0
SOLID
  5
74A
330
745
100
AcDbEntity
  8
1
 62
     2
100
AcDbTrace
 10
249.432840245406
 20
38.60504250723781
 30
0.0
 11
249.432840245406
 21
39.39495749276219
 31
0.0
 12
252.432840245406
 22
39.0
 32
0.0
 13
252.432840245406
 23
39.0
 33
0.0
  0
MTEXT
  5
74B
330
745
100
AcDbEntity
  8
1
 62
     4
100
AcDbMText
 10
221.682840245406
 20
41.0
 30
0.0
 40
3.0
 41
0.0
 71
     7
 72
     1
  1
57
  7
CONVERTER_13
 11
0.9999999999970619
 21
2.424068405545306E-6
 31
0.0
 73
     1
 44
0.60024009603842
  0
ENDBLK
  5
74D
330
745
100
AcDbEntity
  8
0
100
AcDbBlockEnd
  0
BLOCK
  5
757
330
750
100
AcDbEntity
  8
0
100
AcDbBlockBegin
  2
*D7
 70
     1
 10
0.0
 20
0.0
 30
0.0
  3
*D7
  1

  0
LINE
  5
751
330
750
100
AcDbEntity
  8
1
  6
Continuous
 62
     2
100
AcDbLine
 10
150.576229167443
 20
70.1654730106078
 30
0.0
 11
150.576229167443
 21
96.96460395407543
 31
0.0
  0
LINE
  5
752
330
750
100
AcDbEntity
  8
1
  6
Continuous
 62
     2
100
AcDbLine
 10
134.4970987530789
 20
70.1654730106078
 30
0.0
 11
151.576229167443
 21
70.1654730106078
 31
0.0
  0
LINE
  5
753
330
750
100
AcDbEntity
  8
1
  6
Continuous
 62
     2
100
AcDbLine
 10
134.4970987530789
 20
96.96460395407543
 30
0.0
 11
151.576229167443
 21
96.96460395407543
 31
0.0
  0
SOLID
  5
754
330
750
100
AcDbEntity
  8
1
 62
     2
100
AcDbTrace
 10
150.1812716746808
 20
73.1654730106078
 30
0.0
 11
150.9711866602052
 21
73.1654730106078
 31
0.0
 12
150.576229167443
 22
70.1654730106078
 32
0.0
 13
150.576229167443
 23
70.1654730106078
 33
0.0
  0
SOLID
  5
755
330
750
100
AcDbEntity
  8
1
 62
     2
100
AcDbTrace
 10
150.9711866602052
 20
93.96460395407543
 30
0.0
 11
150.1812716746808
 21
93.96460395407543
 31
0.0
 12
150.576229167443
 22
96.96460395407543
 32
0.0
 13
150.576229167443
 23
96.96460395407543
 33
0.0
  0
MTEXT
  5
756
330
750
100
AcDbEntity
  8
1
 62
     4
100
AcDbMText
 10
148.576229167443
 20
78.9150384823416
 30
0.0
 40
3.0
 41
0.0
 71
     7
 72
     1
  1
PG21
  7
CONVERTER_13
 11
0.0
 21
1.0
 31
0.0
 73
     1
 44
0.60024009603842
  0
ENDBLK
  5
758
330
750
100
AcDbEntity
  8
0
100
AcDbBlockEnd
  0
BLOCK
  5
762
330
75B
100
AcDbEntity
  8
0
100
AcDbBlockBegin
  2
*D8
 70
     1
 10
0.0
 20
0.0
 30
0.0
  3
*D8
  1

  0
LINE
  5
75C
330
75B
100
AcDbEntity
  8
1
  6
Continuous
 62
     2
100
AcDbLine
 10
195.432840245416
 20
163.12180084706
 30
0.0
 11
252.432840245416
 21
163.12180084706
 31
0.0
  0
LINE
  5
75D
330
75B
100
AcDbEntity
  8
1
  6
Continuous
 62
     2
100
AcDbLine
 10
195.432840245416
 20
134.6846039540754
 30
0.0
 11
195.432840245416
 21
164.12180084706
 31
0.0
  0
LINE
  5
75E
330
75B
100
AcDbEntity
  8
1
  6
Continuous
 62
     2
100
AcDbLine
 10
252.432840245416
 20
134.6846039540754
 30
0.0
 11
252.432840245416
 21
164.12180084706
 31
0.0
  0
SOLID
  5
75F
330
75B
100
AcDbEntity
  8
1
 62
     2
100
AcDbTrace
 10
198.432840245416
 20
163.5167583398222
 30
0.0
 11
198.432840245416
 21
162.7268433542978
 31
0.0
 12
195.432840245416
 22
163.12180084706
 32
0.0
 13
195.432840245416
 23
163.12180084706
 33
0.0
  0
SOLID
  5
760
330
75B
100
AcDbEntity
  8
1
 62
     2
100
AcDbTrace
 10
249.432840245416
 20
162.7268433542978
 30
0.0
 11
249.432840245416
 21
163.5167583398222
 31
0.0
 12
252.432840245416
 22
163.12180084706
 32
0.0
 13
252.432840245416
 23
163.12180084706
 33
0.0
  0
MTEXT
  5
761
330
75B
100
AcDbEntity
  8
1
 62
     4
100
AcDbMText
 10
221.682840245416
 20
165.12180084706
 30
0.0
 40
3.0
 41
0.0
 71
     7
 72
     1
  1
58
  7
CONVERTER_13
 11
0.9999999999970619
 21
2.424068405545306E-6
 31
0.0
 73
     1
 44
0.60024009603842
  0
ENDBLK
  5
763
330
75B
100
AcDbEntity
  8
0
100
AcDbBlockEnd
  0
BLOCK
  5
76D
330
766
100
AcDbEntity
  8
0
100
AcDbBlockBegin
  2
*D9
 70
     1
 10
0.0
 20
0.0
 30
0.0
  3
*D9
  1

  0
LINE
  5
767
330
766
100
AcDbEntity
  8
1
  6
Continuous
 62
     2
100
AcDbLine
 10
271.576206358954
 20
137.1846039540754
 30
0.0
 11
271.576206358954
 21
64.18460395407578
 31
0.0
  0
LINE
  5
768
330
766
100
AcDbEntity
  8
1
  6
Continuous
 62
     2
100
AcDbLine
 10
246.4828402454119
 20
137.1846039540754
 30
0.0
 11
272.576206358954
 21
137.1846039540754
 31
0.0
  0
LINE
  5
769
330
766
100
AcDbEntity
  8
1
  6
Continuous
 62
     2
100
AcDbLine
 10
252.932840245406
 20
64.18460395407578
 30
0.0
 11
272.576206358954
 21
64.18460395407578
 31
0.0
  0
SOLID
  5
76A
330
766
100
AcDbEntity
  8
1
 62
     2
100
AcDbTrace
 10
271.9711638517161
 20
134.1846039540754
 30
0.0
 11
271.1812488661918
 21
134.1846039540754
 31
0.0
 12
271.576206358954
 22
137.1846039540754
 32
0.0
 13
271.576206358954
 23
137.1846039540754
 33
0.0
  0
SOLID
  5
76B
330
766
100
AcDbEntity
  8
1
 62
     2
100
AcDbTrace
 10
271.1812488661918
 20
67.18460395407578
 30
0.0
 11
271.9711638517161
 21
67.18460395407578
 31
0.0
 12
271.576206358954
 22
64.18460395407578
 32
0.0
 13
271.576206358954
 23
64.18460395407578
 33
0.0
  0
MTEXT
  5
76C
330
766
100
AcDbEntity
  8
1
 62
     4
100
AcDbMText
 10
269.576206358954
 20
98.4346039540756
 30
0.0
 40
3.0
 41
0.0
 71
     7
 72
     1
  1
73
  7
CONVERTER_13
 11
0.0
 21
1.0
 31
0.0
 73
     1
 44
0.60024009603842
  0
ENDBLK
  5
76E
330
766
100
AcDbEntity
  8
0
100
AcDbBlockEnd
  0
BLOCK
  5
77A
330
771
100
AcDbEntity
  8
0
100
AcDbBlockBegin
  2
*D10
 70
     1
 10
0.0
 20
0.0
 30
0.0
  3
*D10
  1

  0
LINE
  5
772
330
771
100
AcDbEntity
  8
1
  6
Continuous
 62
     2
100
AcDbLine
 10
264.001414510547
 20
74.18460395407583
 30
0.0
 11
264.001414510547
 21
68.18460395407583
 31
0.0
  0
LINE
  5
773
330
771
100
AcDbEntity
  8
1
  6
Continuous
 62
     2
100
AcDbLine
 10
264.001414510547
 20
68.18460395407583
 30
0.0
 11
264.001414510547
 21
64.18460395407583
 31
0.0
  0
LINE
  5
774
330
771
100
AcDbEntity
  8
1
  6
Continuous
 62
     2
100
AcDbLine
 10
264.001414510547
 20
64.18460395407583
 30
0.0
 11
264.001414510547
 21
58.18460395407583
 31
0.0
  0
LINE
  5
775
330
771
100
AcDbEntity
  8
1
  6
Continuous
 62
     2
100
AcDbLine
 10
252.9328402454061
 20
68.18460395407583
 30
0.0
 11
265.001414510547
 21
68.18460395407583
 31
0.0
  0
LINE
  5
776
330
771
100
AcDbEntity
  8
1
  6
Continuous
 62
     2
100
AcDbLine
 10
252.9328402454061
 20
64.18460395407583
 30
0.0
 11
265.001414510547
 21
64.18460395407583
 31
0.0
  0
SOLID
  5
777
330
771
100
AcDbEntity
  8
1
 62
     2
100
AcDbTrace
 10
263.6064570177849
 20
71.18460395407583
 30
0.0
 11
264.3963720033092
 21
71.18460395407583
 31
0.0
 12
264.001414510547
 22
68.18460395407583
 32
0.0
 13
264.001414510547
 23
68.18460395407583
 33
0.0
  0
SOLID
  5
778
330
771
100
AcDbEntity
  8
1
 62
     2
100
AcDbTrace
 10
264.3963720033092
 20
61.18460395407583
 30
0.0
 11
263.6064570177849
 21
61.18460395407583
 31
0.0
 12
264.001414510547
 22
64.18460395407583
 32
0.0
 13
264.001414510547
 23
64.18460395407583
 33
0.0
  0
MTEXT
  5
779
330
771
100
AcDbEntity
  8
1
 62
     4
100
AcDbMText
 10
262.001414510547
 20
65.28460395407582
 30
0.0
 40
3.0
 41
0.0
 71
     7
 72
     1
  1
4
  7
CONVERTER_13
 11
0.0
 21
1.0
 31
0.0
 73
     1
 44
0.60024009603842
  0
ENDBLK
  5
77B
330
771
100
AcDbEntity
  8
0
100
AcDbBlockEnd
  0
ENDSEC
  0
SECTION
  2
ENTITIES
  0
INSERT
  5
50
330
1F
100
AcDbEntity
  8
1
100
AcDbBlockReference
  2
_formato_A4
 10
296.9999999999999
 20
0.0
 30
0.0
  0
POINT
  5
A0
330
1F
100
AcDbEntity
  8
Bemaßungen_TC_020513_DIN_
 62
     7
100
AcDbPoint
 10
146.281048724795
 20
119.1846039540754
 30
0.0
  0
POINT
  5
A1
330
1F
100
AcDbEntity
  8
Bemaßungen_TC_020513_DIN_
 62
     7
100
AcDbPoint
 10
27.41314878136291
 20
119.1846039540754
 30
0.0
  0
POINT
  5
A2
330
1F
100
AcDbEntity
  8
Bemaßungen_TC_020513_DIN_
 62
     7
100
AcDbPoint
 10
252.432840245406
 20
64.18460395407583
 30
0.0
  0
POINT
  5
A3
330
1F
100
AcDbEntity
  8
Bemaßungen_TC_020513_DIN_
 62
     7
100
AcDbPoint
 10
245.9828402454119
 20
137.1846039540754
 30
0.0
  0
POINT
  5
A4
330
1F
100
AcDbEntity
  8
Bemaßungen_TC_020513_DIN_
 62
     7
100
AcDbPoint
 10
252.432840245406
 20
64.18460395407583
 30
0.0
  0
POINT
  5
A5
330
1F
100
AcDbEntity
  8
Bemaßungen_TC_020513_DIN_
 62
     7
100
AcDbPoint
 10
252.432840245406
 20
68.18460395407583
 30
0.0
  0
POINT
  5
A6
330
1F
100
AcDbEntity
  8
Bemaßungen_TC_020513_DIN_
 62
     7
100
AcDbPoint
 10
246.432840245408
 20
61.68460395407583
 30
0.0
  0
POINT
  5
A7
330
1F
100
AcDbEntity
  8
Bemaßungen_TC_020513_DIN_
 62
     7
100
AcDbPoint
 10
201.432840245408
 20
61.68460395407583
 30
0.0
  0
POINT
  5
A8
330
1F
100
AcDbEntity
  8
Bemaßungen_TC_020513_DIN_
 62
     7
100
AcDbPoint
 10
127.847098753079
 20
61.68460395407583
 30
0.0
  0
POINT
  5
A9
330
1F
100
AcDbEntity
  8
Bemaßungen_TC_020513_DIN_
 62
     7
100
AcDbPoint
 10
45.84709875307897
 20
61.68460395407583
 30
0.0
  0
POINT
  5
AA
330
1F
100
AcDbEntity
  8
Bemaßungen_TC_020513_DIN_
 62
     7
100
AcDbPoint
 10
133.597098753079
 20
70.18460395407573
 30
0.0
  0
POINT
  5
AB
330
1F
100
AcDbEntity
  8
Bemaßungen_TC_020513_DIN_
 62
     7
100
AcDbPoint
 10
133.597098753079
 20
96.96460395407543
 30
0.0
  0
POINT
  5
AC
330
1F
100
AcDbEntity
  8
Bemaßungen_TC_020513_DIN_
 62
     7
100
AcDbPoint
 10
195.432840245406
 20
64.18460395407583
 30
0.0
  0
POINT
  5
AD
330
1F
100
AcDbEntity
  8
Bemaßungen_TC_020513_DIN_
 62
     7
100
AcDbPoint
 10
252.432840245406
 20
64.18460395407583
 30
0.0
  0
POINT
  5
AE
330
1F
100
AcDbEntity
  8
Bemaßungen_TC_020513_DIN_
 62
     7
100
AcDbPoint
 10
133.597098753079
 20
68.18460395407583
 30
0.0
  0
POINT
  5
AF
330
1F
100
AcDbEntity
  8
Bemaßungen_TC_020513_DIN_
 62
     7
100
AcDbPoint
 10
40.09709875307897
 20
75.87960395407583
 30
0.0
  0
POINT
  5
B0
330
1F
100
AcDbEntity
  8
Bemaßungen_TC_020513_DIN_
 62
     7
100
AcDbPoint
 10
252.432840245416
 20
130.1846039540754
 30
0.0
  0
POINT
  5
B1
330
1F
100
AcDbEntity
  8
Bemaßungen_TC_020513_DIN_
 62
     7
100
AcDbPoint
 10
195.432840245416
 20
130.1846039540754
 30
0.0
  0
LWPOLYLINE
  5
502
330
1F
100
AcDbEntity
  8
Mittellinie_TC_020513_DIN_
  6
CHAIN
 62
     7
100
AcDbPolyline
 90
        2
 70
     0
 43
0.25
 10
86.84709875307897
 20
62.93896160566553
 10
86.84709875307897
 20
157.7217543177775
  0
LWPOLYLINE
  5
503
330
1F
100
AcDbEntity
  8
Mittelpunktmarkierung_TC_020513_DIN_
  6
CHAIN
 62
     7
100
AcDbPolyline
 90
        2
 70
     0
 43
0.25
 10
76.34709875307897
 20
123.4346039540754
 10
76.34709875307897
 20
114.9346039540754
  0
LWPOLYLINE
  5
504
330
1F
100
AcDbEntity
  8
Mittelpunktmarkierung_TC_020513_DIN_
  6
CHAIN
 62
     7
100
AcDbPolyline
 90
        2
 70
     0
 43
0.25
 10
80.59709875307897
 20
119.1846039540754
 10
72.09709875307897
 20
119.1846039540754
  0
LWPOLYLINE
  5
505
330
1F
100
AcDbEntity
  8
Mittelpunktmarkierung_TC_020513_DIN_
  6
CHAIN
 62
     7
100
AcDbPolyline
 90
        2
 70
     0
 43
0.25
 10
97.34709875307897
 20
123.4346039540754
 10
97.34709875307897
 20
114.9346039540754
  0
LWPOLYLINE
  5
506
330
1F
100
AcDbEntity
  8
Mittelpunktmarkierung_TC_020513_DIN_
  6
CHAIN
 62
     7
100
AcDbPolyline
 90
        2
 70
     0
 43
0.25
 10
101.597098753079
 20
119.1846039540754
 10
93.09709875307897
 20
119.1846039540754
  0
LWPOLYLINE
  5
507
330
1F
100
AcDbEntity
  8
Mittelpunktmarkierung_TC_020513_DIN_
  6
CHAIN
 62
     7
100
AcDbPolyline
 90
        2
 70
     0
 43
0.25
 10
100.347098753079
 20
137.3846039540754
 10
100.347098753079
 20
122.9846039540755
  0
LWPOLYLINE
  5
508
330
1F
100
AcDbEntity
  8
Mittelpunktmarkierung_TC_020513_DIN_
  6
CHAIN
 62
     7
100
AcDbPolyline
 90
        2
 70
     0
 43
0.25
 10
107.547098753079
 20
130.1846039540754
 10
93.14709875307898
 20
130.1846039540754
  0
LWPOLYLINE
  5
509
330
1F
100
AcDbEntity
  8
Mittelpunktmarkierung_TC_020513_DIN_
  6
CHAIN
 62
     7
100
AcDbPolyline
 90
        2
 70
     0
 43
0.25
 10
73.34709875307897
 20
137.3846039540754
 10
73.34709875307897
 20
122.9846039540755
  0
LWPOLYLINE
  5
50A
330
1F
100
AcDbEntity
  8
Mittelpunktmarkierung_TC_020513_DIN_
  6
CHAIN
 62
     7
100
AcDbPolyline
 90
        2
 70
     0
 43
0.25
 10
80.54709875307901
 20
130.1846039540754
 10
66.14709875307898
 20
130.1846039540754
  0
LWPOLYLINE
  5
50B
330
1F
100
AcDbEntity
  8
Mittelpunktmarkierung_TC_020513_DIN_
  6
CHAIN
 62
     7
100
AcDbPolyline
 90
        2
 70
     0
 43
0.25
 10
223.932840245406
 20
99.46460395407543
 10
223.932840245406
 20
67.68460395407573
  0
LWPOLYLINE
  5
50C
330
1F
100
AcDbEntity
  8
Mittelpunktmarkierung_TC_020513_DIN_
  6
CHAIN
 62
     7
100
AcDbPolyline
 90
        2
 70
     0
 43
0.25
 10
239.822840245406
 20
83.57460395407583
 10
208.0428402454059
 20
83.57460395407583
  0
LWPOLYLINE
  5
50D
330
1F
100
AcDbEntity
  8
Mittellinie_TC_020513_DIN_
  6
CHAIN
 62
     7
100
AcDbPolyline
 90
        2
 70
     0
 43
0.25
 10
246.432840245408
 20
61.68460395407583
 10
246.432840245408
 20
70.68460395407583
  0
LWPOLYLINE
  5
50E
330
1F
100
AcDbEntity
  8
Mittellinie_TC_020513_DIN_
  6
CHAIN
 62
     7
100
AcDbPolyline
 90
        2
 70
     0
 43
0.25
 10
201.432840245408
 20
61.68460395407583
 10
201.432840245408
 20
70.68460395407583
  0
LWPOLYLINE
  5
50F
330
1F
100
AcDbEntity
  8
Mittellinie_TC_020513_DIN_
  6
CHAIN
 62
     7
100
AcDbPolyline
 90
        2
 70
     0
 43
0.25
 10
127.847098753079
 20
61.68460395407583
 10
127.847098753079
 20
70.68460395407583
  0
LWPOLYLINE
  5
510
330
1F
100
AcDbEntity
  8
Mittellinie_TC_020513_DIN_
  6
CHAIN
 62
     7
100
AcDbPolyline
 90
        2
 70
     0
 43
0.25
 10
45.84709875307897
 20
61.68460395407583
 10
45.84709875307897
 20
70.68460395407583
  0
LWPOLYLINE
  5
511
330
1F
100
AcDbEntity
  8
Mittellinie_TC_020513_DIN_
  6
CHAIN
 62
     7
100
AcDbPolyline
 90
        2
 70
     0
 43
0.25
 10
37.59709875307897
 20
83.57460395407583
 10
55.59709875307897
 20
83.57460395407583
  0
LWPOLYLINE
  5
512
330
1F
100
AcDbEntity
  8
Mittellinie_TC_020513_DIN_
  6
CHAIN
 62
     7
100
AcDbPolyline
 90
        2
 70
     0
 43
0.25
 10
118.097098753079
 20
83.57460395407583
 10
136.097098753079
 20
83.57460395407583
  0
LWPOLYLINE
  5
513
330
1F
100
AcDbEntity
  8
Sichtbare_Kanten_TC_020513_DIN_
  6
Continuous
 62
     7
100
AcDbPolyline
 90
        2
 70
     0
 43
0.5
 10
202.932840245408
 20
137.5455892890705
 10
200.132840245412
 20
137.5455892890705
  0
LWPOLYLINE
  5
514
330
1F
100
AcDbEntity
  8
Sichtbare_Kanten_TC_020513_DIN_
  6
Continuous
 62
     7
100
AcDbPolyline
 90
        2
 70
     0
 43
0.5
 10
200.563779717065
 20
147.5455892890705
 10
201.559642088488
 20
147.5455892890705
  0
LWPOLYLINE
  5
515
330
1F
100
AcDbEntity
  8
Sichtbare_Kanten_TC_020513_DIN_
  6
Continuous
 62
     7
100
AcDbPolyline
 90
        2
 70
     0
 43
0.5
 10
202.2462409907999
 20
147.5455892331594
 10
201.559643166703
 20
147.5455892331594
  0
LWPOLYLINE
  5
516
330
1F
100
AcDbEntity
  8
Sichtbare_Kanten_TC_020513_DIN_
  6
Continuous
 62
     7
100
AcDbPolyline
 90
        2
 70
     0
 43
0.5
 10
200.132840245409
 20
147.9808455382674
 10
200.9168383326309
 20
147.9808455382674
  0
LWPOLYLINE
  5
517
330
1F
100
AcDbEntity
  8
Sichtbare_Kanten_TC_020513_DIN_
  6
Continuous
 62
     7
100
AcDbPolyline
 90
        2
 70
     0
 43
0.5
 10
200.9168383326309
 20
147.9808455382674
 10
201.532840245409
 20
147.9808455382674
  0
LWPOLYLINE
  5
518
330
1F
100
AcDbEntity
  8
Sichtbare_Kanten_TC_020513_DIN_
  6
Continuous
 62
     7
100
AcDbPolyline
 90
        2
 70
     0
 43
0.5
 10
200.132840245412
 20
137.5455892890705
 10
200.132840245409
 20
147.9808455382674
  0
LWPOLYLINE
  5
519
330
1F
100
AcDbEntity
  8
Sichtbare_Kanten_TC_020513_DIN_
  6
Continuous
 62
     7
100
AcDbPolyline
 90
        2
 70
     0
 43
0.5
 10
208.245057889882
 20
135.3937466941364
 10
208.245057889882
 20
135.1334122165824
  0
LWPOLYLINE
  5
51A
330
1F
100
AcDbEntity
  8
Sichtbare_Kanten_TC_020513_DIN_
  6
Continuous
 62
     7
100
AcDbPolyline
 90
        2
 70
     0
 43
0.5
 10
208.245057889882
 20
135.1334122165824
 10
208.245057889883
 20
134.8020811276994
  0
LWPOLYLINE
  5
51B
330
1F
100
AcDbEntity
  8
Sichtbare_Kanten_TC_020513_DIN_
  6
Continuous
 62
     7
100
AcDbPolyline
 90
        2
 70
     0
 43
0.5
 10
209.510627170925
 20
148.7622265916614
 10
209.510627170925
 20
147.9782277219435
  0
LWPOLYLINE
  5
51C
330
1F
100
AcDbEntity
  8
Sichtbare_Kanten_TC_020513_DIN_
  6
Continuous
 62
     7
100
AcDbPolyline
 90
        2
 70
     0
 43
0.5
 10
209.510627170925
 20
147.9782277219435
 10
209.510627170925
 20
147.3622265916615
  0
LWPOLYLINE
  5
51D
330
1F
100
AcDbEntity
  8
Sichtbare_Kanten_TC_020513_DIN_
  6
Continuous
 62
     7
100
AcDbPolyline
 90
        2
 70
     0
 43
0.5
 10
238.35505331989
 20
147.3622265916615
 10
238.35505331989
 20
147.9782277219414
  0
LWPOLYLINE
  5
51E
330
1F
100
AcDbEntity
  8
Sichtbare_Kanten_TC_020513_DIN_
  6
Continuous
 62
     7
100
AcDbPolyline
 90
        2
 70
     0
 43
0.5
 10
238.35505331989
 20
147.9782277219414
 10
238.35505331989
 20
148.7622265916614
  0
LWPOLYLINE
  5
51F
330
1F
100
AcDbEntity
  8
Sichtbare_Kanten_TC_020513_DIN_
  6
Continuous
 62
     7
100
AcDbPolyline
 90
        2
 70
     0
 43
0.5
 10
247.7328402454089
 20
147.9808455382674
 10
247.7328402454119
 20
137.5455892890705
  0
LWPOLYLINE
  5
520
330
1F
100
AcDbEntity
  8
Sichtbare_Kanten_TC_020513_DIN_
  6
Continuous
 62
     7
100
AcDbPolyline
 90
        2
 70
     0
 43
0.5
 10
247.7328402454119
 20
137.5455892890705
 10
244.932840245408
 20
137.5455892890705
  0
LWPOLYLINE
  5
521
330
1F
100
AcDbEntity
  8
Sichtbare_Kanten_TC_020513_DIN_
  6
Continuous
 62
     7
100
AcDbPolyline
 90
        2
 70
     0
 43
0.5
 10
246.306038402327
 20
147.5455892890705
 10
247.301900773752
 20
147.5455892890705
  0
LWPOLYLINE
  5
522
330
1F
100
AcDbEntity
  8
Sichtbare_Kanten_TC_020513_DIN_
  6
Continuous
 62
     7
100
AcDbPolyline
 90
        2
 70
     0
 43
0.5
 10
246.332840245409
 20
147.9808455382674
 10
246.948842158186
 20
147.9808455382674
  0
LWPOLYLINE
  5
523
330
1F
100
AcDbEntity
  8
Sichtbare_Kanten_TC_020513_DIN_
  6
Continuous
 62
     7
100
AcDbPolyline
 90
        2
 70
     0
 43
0.5
 10
246.948842158186
 20
147.9808455382674
 10
247.7328402454089
 20
147.9808455382674
  0
LWPOLYLINE
  5
524
330
1F
100
AcDbEntity
  8
Sichtbare_Kanten_TC_020513_DIN_
  6
Continuous
 62
     7
100
AcDbPolyline
 90
        2
 70
     0
 43
0.5
 10
245.619439500016
 20
147.5455892331594
 10
246.3060373241129
 20
147.5455892331594
  0
LWPOLYLINE
  5
525
330
1F
100
AcDbEntity
  8
Sichtbare_Kanten_TC_020513_DIN_
  6
Continuous
 62
     7
100
AcDbPolyline
 90
        2
 70
     0
 43
0.5
 10
239.620622600934
 20
134.8020811276994
 10
239.620622600934
 20
135.1334122165835
  0
LWPOLYLINE
  5
526
330
1F
100
AcDbEntity
  8
Sichtbare_Kanten_TC_020513_DIN_
  6
Continuous
 62
     7
100
AcDbPolyline
 90
        2
 70
     0
 43
0.5
 10
239.620622600934
 20
135.1334122165835
 10
239.6206226009329
 20
135.3937466941364
  0
LWPOLYLINE
  5
527
330
1F
100
AcDbEntity
  8
Sichtbare_Kanten_TC_020513_DIN_
  6
Continuous
 62
     7
100
AcDbPolyline
 90
        2
 70
     0
 43
0.5
 10
249.0328402454159
 20
137.1846039540754
 10
250.432840245416
 20
137.1846039540754
  0
LWPOLYLINE
  5
528
330
1F
100
AcDbEntity
  8
Sichtbare_Kanten_TC_020513_DIN_
  6
Continuous
 62
     7
100
AcDbPolyline
 90
        2
 70
     0
 43
0.5
 10
249.032840245417
 20
115.4506635294694
 10
250.4328402454169
 20
115.4506635294694
  0
LWPOLYLINE
  5
529
330
1F
100
AcDbEntity
  8
Sichtbare_Kanten_TC_020513_DIN_
  6
Continuous
 62
     7
100
AcDbPolyline
 90
        2
 70
     0
 43
0.5
 10
197.432840245416
 20
137.1846039540754
 10
198.832840245416
 20
137.1846039540754
  0
LWPOLYLINE
  5
52A
330
1F
100
AcDbEntity
  8
Sichtbare_Kanten_TC_020513_DIN_
  6
Continuous
 62
     7
100
AcDbPolyline
 90
        2
 70
     0
 43
0.5
 10
197.4328402454169
 20
115.4506635294694
 10
198.832840245417
 20
115.4506635294694
  0
LWPOLYLINE
  5
52B
330
1F
100
AcDbEntity
  8
Sichtbare_Kanten_TC_020513_DIN_
  6
Continuous
 62
     7
100
AcDbPolyline
 90
        2
 70
     0
 43
0.5
 10
211.805455195261
 20
128.5418993818335
 10
236.0602252955519
 20
128.5418993818335
  0
LWPOLYLINE
  5
52C
330
1F
100
AcDbEntity
  8
Sichtbare_Kanten_TC_020513_DIN_
  6
Continuous
 62
     7
100
AcDbPolyline
 90
        2
 70
     0
 43
0.5
 10
209.873603542684
 20
129.8853755238874
 10
208.245057889882
 20
135.3937466941364
  0
LWPOLYLINE
  5
52D
330
1F
100
AcDbEntity
  8
Sichtbare_Kanten_TC_020513_DIN_
  6
Continuous
 62
     7
100
AcDbPolyline
 90
        2
 70
     0
 43
0.5
 10
200.032840245417
 20
119.9469490390684
 10
199.098851674001
 20
119.9469490390684
  0
LWPOLYLINE
  5
52E
330
1F
100
AcDbEntity
  8
Sichtbare_Kanten_TC_020513_DIN_
  6
Continuous
 62
     7
100
AcDbPolyline
 90
        2
 70
     0
 43
0.5
 10
197.095185330409
 20
119.9469490390684
 10
197.095185330409
 20
118.5469490390684
  0
LWPOLYLINE
  5
52F
330
1F
100
AcDbEntity
  8
Sichtbare_Kanten_TC_020513_DIN_
  6
Continuous
 62
     7
100
AcDbPolyline
 90
        2
 70
     0
 43
0.5
 10
197.095185330409
 20
119.9469490390684
 10
197.4328402454169
 20
119.9469490390684
  0
LWPOLYLINE
  5
530
330
1F
100
AcDbEntity
  8
Sichtbare_Kanten_TC_020513_DIN_
  6
Continuous
 62
     7
100
AcDbPolyline
 90
        2
 70
     0
 43
0.5
 10
197.4328402454169
 20
118.5469490390684
 10
197.095185330409
 20
118.5469490390684
  0
LWPOLYLINE
  5
531
330
1F
100
AcDbEntity
  8
Sichtbare_Kanten_TC_020513_DIN_
  6
Continuous
 62
     7
100
AcDbPolyline
 90
        2
 70
     0
 43
0.5
 10
200.1328402454149
 20
155.1846039540754
 10
201.532840245415
 20
155.1846039540754
  0
LWPOLYLINE
  5
532
330
1F
100
AcDbEntity
  8
Sichtbare_Kanten_TC_020513_DIN_
  6
Continuous
 62
     7
100
AcDbPolyline
 90
        2
 70
     0
 43
0.5
 10
200.132840245417
 20
120.1846039540754
 10
201.5328402454159
 20
120.1846039540754
  0
LWPOLYLINE
  5
533
330
1F
100
AcDbEntity
  8
Sichtbare_Kanten_TC_020513_DIN_
  6
Continuous
 62
     7
100
AcDbPolyline
 90
        2
 70
     0
 43
0.5
 10
209.510627170925
 20
147.3622265916615
 10
210.832762277656
 20
147.3622265916615
  0
LWPOLYLINE
  5
534
330
1F
100
AcDbEntity
  8
Sichtbare_Kanten_TC_020513_DIN_
  6
Continuous
 62
     7
100
AcDbPolyline
 90
        2
 70
     0
 43
0.5
 10
212.7646139302339
 20
147.3622265916615
 10
210.832762277656
 20
147.3622265916615
  0
LWPOLYLINE
  5
535
330
1F
100
AcDbEntity
  8
Sichtbare_Kanten_TC_020513_DIN_
  6
Continuous
 62
     7
100
AcDbPolyline
 90
        2
 70
     0
 43
0.5
 10
200.1328402454099
 20
150.0280652228655
 10
200.1328402454149
 20
155.1846039540754
  0
LWPOLYLINE
  5
536
330
1F
100
AcDbEntity
  8
Sichtbare_Kanten_TC_020513_DIN_
  6
Continuous
 62
     7
100
AcDbPolyline
 90
        2
 70
     0
 43
0.5
 10
200.1328402454099
 20
150.0280652228655
 10
200.132840245409
 20
147.9808455382674
  0
LWPOLYLINE
  5
537
330
1F
100
AcDbEntity
  8
Sichtbare_Kanten_TC_020513_DIN_
  6
Continuous
 62
     7
100
AcDbPolyline
 90
        2
 70
     0
 43
0.5
 10
200.132840245412
 20
137.5455892890705
 10
200.132840245413
 20
133.5767537171684
  0
LWPOLYLINE
  5
538
330
1F
100
AcDbEntity
  8
Sichtbare_Kanten_TC_020513_DIN_
  6
Continuous
 62
     7
100
AcDbPolyline
 90
        2
 70
     0
 43
0.5
 10
200.132840245413
 20
133.5767537171684
 10
200.132840245413
 20
133.2281818254494
  0
LWPOLYLINE
  5
539
330
1F
100
AcDbEntity
  8
Sichtbare_Kanten_TC_020513_DIN_
  6
Continuous
 62
     7
100
AcDbPolyline
 90
        2
 70
     0
 43
0.5
 10
200.132840245413
 20
133.2281818254494
 10
200.132840245413
 20
128.4002022693464
  0
LWPOLYLINE
  5
53A
330
1F
100
AcDbEntity
  8
Sichtbare_Kanten_TC_020513_DIN_
  6
Continuous
 62
     7
100
AcDbPolyline
 90
        2
 70
     0
 43
0.5
 10
200.132840245417
 20
120.1846039540754
 10
200.132840245413
 20
128.4002022693464
  0
LWPOLYLINE
  5
53B
330
1F
100
AcDbEntity
  8
Sichtbare_Kanten_TC_020513_DIN_
  6
Continuous
 62
     7
100
AcDbPolyline
 90
        2
 70
     0
 43
0.5
 10
200.132840245417
 20
120.1846039540754
 10
200.132840245417
 20
120.0469490390684
  0
LWPOLYLINE
  5
53C
330
1F
100
AcDbEntity
  8
Sichtbare_Kanten_TC_020513_DIN_
  6
Continuous
 62
     7
100
AcDbPolyline
 90
        2
 70
     0
 43
0.5
 10
201.532840245417
 20
120.0469490390684
 10
201.5328402454159
 20
120.1846039540754
  0
LWPOLYLINE
  5
53D
330
1F
100
AcDbEntity
  8
Sichtbare_Kanten_TC_020513_DIN_
  6
Continuous
 62
     7
100
AcDbPolyline
 90
        2
 70
     0
 43
0.5
 10
201.532840245414
 20
128.4002022693464
 10
201.5328402454159
 20
120.1846039540754
  0
LWPOLYLINE
  5
53E
330
1F
100
AcDbEntity
  8
Sichtbare_Kanten_TC_020513_DIN_
  6
Continuous
 62
     7
100
AcDbPolyline
 90
        2
 70
     0
 43
0.5
 10
201.532840245414
 20
128.4002022693464
 10
201.532840245413
 20
133.2281818254494
  0
LWPOLYLINE
  5
53F
330
1F
100
AcDbEntity
  8
Sichtbare_Kanten_TC_020513_DIN_
  6
Continuous
 62
     7
100
AcDbPolyline
 90
        2
 70
     0
 43
0.5
 10
201.532840245413
 20
133.2281818254494
 10
201.532840245413
 20
133.5767537171684
  0
LWPOLYLINE
  5
540
330
1F
100
AcDbEntity
  8
Sichtbare_Kanten_TC_020513_DIN_
  6
Continuous
 62
     7
100
AcDbPolyline
 90
        2
 70
     0
 43
0.5
 10
201.532840245413
 20
133.5767537171684
 10
201.532840245412
 20
137.5455892890705
  0
LWPOLYLINE
  5
541
330
1F
100
AcDbEntity
  8
Sichtbare_Kanten_TC_020513_DIN_
  6
Continuous
 62
     7
100
AcDbPolyline
 90
        2
 70
     0
 43
0.5
 10
201.532840245409
 20
147.9808455382674
 10
201.53284024541
 20
150.0280652228655
  0
LWPOLYLINE
  5
542
330
1F
100
AcDbEntity
  8
Sichtbare_Kanten_TC_020513_DIN_
  6
Continuous
 62
     7
100
AcDbPolyline
 90
        2
 70
     0
 43
0.5
 10
201.532840245415
 20
155.1846039540754
 10
201.53284024541
 20
150.0280652228655
  0
LWPOLYLINE
  5
543
330
1F
100
AcDbEntity
  8
Sichtbare_Kanten_TC_020513_DIN_
  6
Continuous
 62
     7
100
AcDbPolyline
 90
        2
 70
     0
 43
0.5
 10
207.399477547999
 20
137.5455892890705
 10
202.932840245408
 20
137.5455892890705
  0
LWPOLYLINE
  5
544
330
1F
100
AcDbEntity
  8
Sichtbare_Kanten_TC_020513_DIN_
  6
Continuous
 62
     7
100
AcDbPolyline
 90
        2
 70
     0
 43
0.5
 10
202.932840245408
 20
146.8697994088414
 10
203.744247683544
 20
145.9028016793845
  0
LWPOLYLINE
  5
545
330
1F
100
AcDbEntity
  8
Sichtbare_Kanten_TC_020513_DIN_
  6
Continuous
 62
     7
100
AcDbPolyline
 90
        2
 70
     0
 43
0.5
 10
204.510292126663
 20
145.5455892890705
 10
207.399477547999
 20
145.5455892890705
  0
LWPOLYLINE
  5
546
330
1F
100
AcDbEntity
  8
Sichtbare_Kanten_TC_020513_DIN_
  6
Continuous
 62
     7
100
AcDbPolyline
 90
        2
 70
     0
 43
0.5
 10
208.009357469829
 20
135.9854122605734
 10
207.6409590045709
 20
137.3602940503465
  0
LWPOLYLINE
  5
547
330
1F
100
AcDbEntity
  8
Sichtbare_Kanten_TC_020513_DIN_
  6
Continuous
 62
     7
100
AcDbPolyline
 90
        2
 70
     0
 43
0.5
 10
208.245057889883
 20
134.8020811276994
 10
209.873603542684
 20
129.2937099574504
  0
LWPOLYLINE
  5
548
330
1F
100
AcDbEntity
  8
Sichtbare_Kanten_TC_020513_DIN_
  6
Continuous
 62
     7
100
AcDbPolyline
 90
        2
 70
     0
 43
0.5
 10
236.060225295553
 20
127.9502338153964
 10
211.8054551952619
 20
127.9502338153964
  0
LWPOLYLINE
  5
549
330
1F
100
AcDbEntity
  8
Sichtbare_Kanten_TC_020513_DIN_
  6
Continuous
 62
     7
100
AcDbPolyline
 90
        2
 70
     0
 43
0.5
 10
210.832762277656
 20
148.7622265916614
 10
212.7646139302339
 20
148.7622265916614
  0
LWPOLYLINE
  5
54A
330
1F
100
AcDbEntity
  8
Sichtbare_Kanten_TC_020513_DIN_
  6
Continuous
 62
     7
100
AcDbPolyline
 90
        2
 70
     0
 43
0.5
 10
210.832762277656
 20
148.7622265916614
 10
209.510627170925
 20
148.7622265916614
  0
LWPOLYLINE
  5
54B
330
1F
100
AcDbEntity
  8
Sichtbare_Kanten_TC_020513_DIN_
  6
Continuous
 62
     7
100
AcDbPolyline
 90
        2
 70
     0
 43
0.5
 10
212.7646139302339
 20
147.3622265916615
 10
235.101066560577
 20
147.3622265916615
  0
LWPOLYLINE
  5
54C
330
1F
100
AcDbEntity
  8
Sichtbare_Kanten_TC_020513_DIN_
  6
Continuous
 62
     7
100
AcDbPolyline
 90
        2
 70
     0
 43
0.5
 10
235.101066560577
 20
148.7622265916614
 10
212.7646139302339
 20
148.7622265916614
  0
LWPOLYLINE
  5
54D
330
1F
100
AcDbEntity
  8
Sichtbare_Kanten_TC_020513_DIN_
  6
Continuous
 62
     7
100
AcDbPolyline
 90
        2
 70
     0
 43
0.5
 10
239.620622600934
 20
134.8020811276994
 10
237.992076948131
 20
129.2937099574504
  0
LWPOLYLINE
  5
54E
330
1F
100
AcDbEntity
  8
Sichtbare_Kanten_TC_020513_DIN_
  6
Continuous
 62
     7
100
AcDbPolyline
 90
        2
 70
     0
 43
0.5
 10
237.992076948131
 20
129.8853755238874
 10
239.6206226009329
 20
135.3937466941364
  0
LWPOLYLINE
  5
54F
330
1F
100
AcDbEntity
  8
Sichtbare_Kanten_TC_020513_DIN_
  6
Continuous
 62
     7
100
AcDbPolyline
 90
        2
 70
     0
 43
0.5
 10
250.770495160424
 20
119.9469490390684
 10
250.4328402454169
 20
119.9469490390684
  0
LWPOLYLINE
  5
550
330
1F
100
AcDbEntity
  8
Sichtbare_Kanten_TC_020513_DIN_
  6
Continuous
 62
     7
100
AcDbPolyline
 90
        2
 70
     0
 43
0.5
 10
250.770495160424
 20
119.9469490390684
 10
250.770495160424
 20
118.5469490390684
  0
LWPOLYLINE
  5
551
330
1F
100
AcDbEntity
  8
Sichtbare_Kanten_TC_020513_DIN_
  6
Continuous
 62
     7
100
AcDbPolyline
 90
        2
 70
     0
 43
0.5
 10
250.4328402454169
 20
118.5469490390684
 10
250.770495160424
 20
118.5469490390684
  0
LWPOLYLINE
  5
552
330
1F
100
AcDbEntity
  8
Sichtbare_Kanten_TC_020513_DIN_
  6
Continuous
 62
     7
100
AcDbPolyline
 90
        2
 70
     0
 43
0.5
 10
247.832840245417
 20
119.9469490390684
 10
248.766828816833
 20
119.9469490390684
  0
LWPOLYLINE
  5
553
330
1F
100
AcDbEntity
  8
Sichtbare_Kanten_TC_020513_DIN_
  6
Continuous
 62
     7
100
AcDbPolyline
 90
        2
 70
     0
 43
0.5
 10
238.35505331989
 20
147.3622265916615
 10
237.032918213156
 20
147.3622265916615
  0
LWPOLYLINE
  5
554
330
1F
100
AcDbEntity
  8
Sichtbare_Kanten_TC_020513_DIN_
  6
Continuous
 62
     7
100
AcDbPolyline
 90
        2
 70
     0
 43
0.5
 10
237.032918213156
 20
148.7622265916614
 10
238.35505331989
 20
148.7622265916614
  0
LWPOLYLINE
  5
555
330
1F
100
AcDbEntity
  8
Sichtbare_Kanten_TC_020513_DIN_
  6
Continuous
 62
     7
100
AcDbPolyline
 90
        2
 70
     0
 43
0.5
 10
235.101066560577
 20
147.3622265916615
 10
237.032918213156
 20
147.3622265916615
  0
LWPOLYLINE
  5
556
330
1F
100
AcDbEntity
  8
Sichtbare_Kanten_TC_020513_DIN_
  6
Continuous
 62
     7
100
AcDbPolyline
 90
        2
 70
     0
 43
0.5
 10
237.032918213156
 20
148.7622265916614
 10
235.101066560577
 20
148.7622265916614
  0
LWPOLYLINE
  5
557
330
1F
100
AcDbEntity
  8
Sichtbare_Kanten_TC_020513_DIN_
  6
Continuous
 62
     7
100
AcDbPolyline
 90
        2
 70
     0
 43
0.5
 10
244.932840245408
 20
146.8697994088414
 10
244.1214328072719
 20
145.9028016793845
  0
LWPOLYLINE
  5
558
330
1F
100
AcDbEntity
  8
Sichtbare_Kanten_TC_020513_DIN_
  6
Continuous
 62
     7
100
AcDbPolyline
 90
        2
 70
     0
 43
0.5
 10
240.4662029428169
 20
137.5455892890705
 10
244.932840245408
 20
137.5455892890705
  0
LWPOLYLINE
  5
559
330
1F
100
AcDbEntity
  8
Sichtbare_Kanten_TC_020513_DIN_
  6
Continuous
 62
     7
100
AcDbPolyline
 90
        2
 70
     0
 43
0.5
 10
239.856323020987
 20
135.9854122605734
 10
240.224721486245
 20
137.3602940503465
  0
LWPOLYLINE
  5
55A
330
1F
100
AcDbEntity
  8
Sichtbare_Kanten_TC_020513_DIN_
  6
Continuous
 62
     7
100
AcDbPolyline
 90
        2
 70
     0
 43
0.5
 10
243.355388364153
 20
145.5455892890705
 10
240.4662029428169
 20
145.5455892890705
  0
LWPOLYLINE
  5
55B
330
1F
100
AcDbEntity
  8
Sichtbare_Kanten_TC_020513_DIN_
  6
Continuous
 62
     7
100
AcDbPolyline
 90
        2
 70
     0
 43
0.5
 10
247.732840245415
 20
155.1846039540754
 10
246.332840245415
 20
155.1846039540754
  0
LWPOLYLINE
  5
55C
330
1F
100
AcDbEntity
  8
Sichtbare_Kanten_TC_020513_DIN_
  6
Continuous
 62
     7
100
AcDbPolyline
 90
        2
 70
     0
 43
0.5
 10
247.732840245416
 20
120.1846039540754
 10
246.332840245417
 20
120.1846039540754
  0
LWPOLYLINE
  5
55D
330
1F
100
AcDbEntity
  8
Sichtbare_Kanten_TC_020513_DIN_
  6
Continuous
 62
     7
100
AcDbPolyline
 90
        2
 70
     0
 43
0.5
 10
247.732840245416
 20
120.1846039540754
 10
247.7328402454169
 20
120.0469490390684
  0
LWPOLYLINE
  5
55E
330
1F
100
AcDbEntity
  8
Sichtbare_Kanten_TC_020513_DIN_
  6
Continuous
 62
     7
100
AcDbPolyline
 90
        2
 70
     0
 43
0.5
 10
247.732840245416
 20
120.1846039540754
 10
247.7328402454139
 20
128.4002022693464
  0
LWPOLYLINE
  5
55F
330
1F
100
AcDbEntity
  8
Sichtbare_Kanten_TC_020513_DIN_
  6
Continuous
 62
     7
100
AcDbPolyline
 90
        2
 70
     0
 43
0.5
 10
247.732840245413
 20
133.2281818254494
 10
247.7328402454139
 20
128.4002022693464
  0
LWPOLYLINE
  5
560
330
1F
100
AcDbEntity
  8
Sichtbare_Kanten_TC_020513_DIN_
  6
Continuous
 62
     7
100
AcDbPolyline
 90
        2
 70
     0
 43
0.5
 10
247.732840245413
 20
133.5767537171684
 10
247.732840245413
 20
133.2281818254494
  0
LWPOLYLINE
  5
561
330
1F
100
AcDbEntity
  8
Sichtbare_Kanten_TC_020513_DIN_
  6
Continuous
 62
     7
100
AcDbPolyline
 90
        2
 70
     0
 43
0.5
 10
247.7328402454119
 20
137.5455892890705
 10
247.732840245413
 20
133.5767537171684
  0
LWPOLYLINE
  5
562
330
1F
100
AcDbEntity
  8
Sichtbare_Kanten_TC_020513_DIN_
  6
Continuous
 62
     7
100
AcDbPolyline
 90
        2
 70
     0
 43
0.5
 10
247.73284024541
 20
150.0280652228655
 10
247.732840245415
 20
155.1846039540754
  0
LWPOLYLINE
  5
563
330
1F
100
AcDbEntity
  8
Sichtbare_Kanten_TC_020513_DIN_
  6
Continuous
 62
     7
100
AcDbPolyline
 90
        2
 70
     0
 43
0.5
 10
247.73284024541
 20
150.0280652228655
 10
247.7328402454089
 20
147.9808455382674
  0
LWPOLYLINE
  5
564
330
1F
100
AcDbEntity
  8
Sichtbare_Kanten_TC_020513_DIN_
  6
Continuous
 62
     7
100
AcDbPolyline
 90
        2
 70
     0
 43
0.5
 10
246.332840245415
 20
155.1846039540754
 10
246.33284024541
 20
150.0280652228655
  0
LWPOLYLINE
  5
565
330
1F
100
AcDbEntity
  8
Sichtbare_Kanten_TC_020513_DIN_
  6
Continuous
 62
     7
100
AcDbPolyline
 90
        2
 70
     0
 43
0.5
 10
246.332840245409
 20
147.9808455382674
 10
246.33284024541
 20
150.0280652228655
  0
LWPOLYLINE
  5
566
330
1F
100
AcDbEntity
  8
Sichtbare_Kanten_TC_020513_DIN_
  6
Continuous
 62
     7
100
AcDbPolyline
 90
        2
 70
     0
 43
0.5
 10
246.3328402454129
 20
133.5767537171684
 10
246.332840245412
 20
137.5455892890705
  0
LWPOLYLINE
  5
567
330
1F
100
AcDbEntity
  8
Sichtbare_Kanten_TC_020513_DIN_
  6
Continuous
 62
     7
100
AcDbPolyline
 90
        2
 70
     0
 43
0.5
 10
246.3328402454129
 20
133.2281818254494
 10
246.3328402454129
 20
133.5767537171684
  0
LWPOLYLINE
  5
568
330
1F
100
AcDbEntity
  8
Sichtbare_Kanten_TC_020513_DIN_
  6
Continuous
 62
     7
100
AcDbPolyline
 90
        2
 70
     0
 43
0.5
 10
246.3328402454129
 20
128.4002022693474
 10
246.3328402454129
 20
133.2281818254494
  0
LWPOLYLINE
  5
569
330
1F
100
AcDbEntity
  8
Sichtbare_Kanten_TC_020513_DIN_
  6
Continuous
 62
     7
100
AcDbPolyline
 90
        2
 70
     0
 43
0.5
 10
246.3328402454129
 20
128.4002022693474
 10
246.332840245417
 20
120.1846039540754
  0
LWPOLYLINE
  5
56A
330
1F
100
AcDbEntity
  8
Sichtbare_Kanten_TC_020513_DIN_
  6
Continuous
 62
     7
100
AcDbPolyline
 90
        2
 70
     0
 43
0.5
 10
246.332840245417
 20
120.0469490390684
 10
246.332840245417
 20
120.1846039540754
  0
LWPOLYLINE
  5
56B
330
1F
100
AcDbEntity
  8
Sichtbare_Kanten_TC_020513_DIN_
  6
Continuous
 62
     7
100
AcDbPolyline
 90
        2
 70
     0
 43
0.5
 10
250.432840245413
 20
131.1846039540754
 10
249.0328402454089
 20
131.1846039540754
  0
LWPOLYLINE
  5
56C
330
1F
100
AcDbEntity
  8
Sichtbare_Kanten_TC_020513_DIN_
  6
Continuous
 62
     7
100
AcDbPolyline
 90
        2
 70
     0
 43
0.5
 10
250.432840245413
 20
120.7679666514854
 10
250.4328402454069
 20
123.1846039540754
  0
LWPOLYLINE
  5
56D
330
1F
100
AcDbEntity
  8
Sichtbare_Kanten_TC_020513_DIN_
  6
Continuous
 62
     7
100
AcDbPolyline
 90
        2
 70
     0
 43
0.5
 10
250.432840245413
 20
131.1846039540754
 10
250.4328402454069
 20
123.1846039540754
  0
LWPOLYLINE
  5
56E
330
1F
100
AcDbEntity
  8
Sichtbare_Kanten_TC_020513_DIN_
  6
Continuous
 62
     7
100
AcDbPolyline
 90
        2
 70
     0
 43
0.5
 10
250.432840245413
 20
131.1846039540754
 10
250.432840245413
 20
131.3630162039835
  0
LWPOLYLINE
  5
56F
330
1F
100
AcDbEntity
  8
Sichtbare_Kanten_TC_020513_DIN_
  6
Continuous
 62
     7
100
AcDbPolyline
 90
        2
 70
     0
 43
0.5
 10
250.4328402454149
 20
136.4765796676545
 10
250.432840245413
 20
131.3630162039835
  0
LWPOLYLINE
  5
570
330
1F
100
AcDbEntity
  8
Sichtbare_Kanten_TC_020513_DIN_
  6
Continuous
 62
     7
100
AcDbPolyline
 90
        2
 70
     0
 43
0.5
 10
250.432840245416
 20
137.1846039540754
 10
250.4328402454149
 20
136.4765796676545
  0
LWPOLYLINE
  5
571
330
1F
100
AcDbEntity
  8
Sichtbare_Kanten_TC_020513_DIN_
  6
Continuous
 62
     7
100
AcDbPolyline
 90
        2
 70
     0
 43
0.5
 10
250.432840245413
 20
120.7679666514854
 10
250.4328402454169
 20
115.4506635294694
  0
LWPOLYLINE
  5
572
330
1F
100
AcDbEntity
  8
Sichtbare_Kanten_TC_020513_DIN_
  6
Continuous
 62
     7
100
AcDbPolyline
 90
        2
 70
     0
 43
0.5
 10
249.0328402454139
 20
118.3430955208884
 10
249.032840245417
 20
115.4506635294694
  0
LWPOLYLINE
  5
573
330
1F
100
AcDbEntity
  8
Sichtbare_Kanten_TC_020513_DIN_
  6
Continuous
 62
     7
100
AcDbPolyline
 90
        2
 70
     0
 43
0.5
 10
249.0328402454159
 20
137.1846039540754
 10
249.032840245415
 20
136.4765796676545
  0
LWPOLYLINE
  5
574
330
1F
100
AcDbEntity
  8
Sichtbare_Kanten_TC_020513_DIN_
  6
Continuous
 62
     7
100
AcDbPolyline
 90
        2
 70
     0
 43
0.5
 10
249.032840245415
 20
136.4765796676545
 10
249.032840245413
 20
131.3630162039835
  0
LWPOLYLINE
  5
575
330
1F
100
AcDbEntity
  8
Sichtbare_Kanten_TC_020513_DIN_
  6
Continuous
 62
     7
100
AcDbPolyline
 90
        2
 70
     0
 43
0.5
 10
249.0328402454089
 20
131.1846039540754
 10
249.032840245413
 20
131.3630162039835
  0
LWPOLYLINE
  5
576
330
1F
100
AcDbEntity
  8
Sichtbare_Kanten_TC_020513_DIN_
  6
Continuous
 62
     7
100
AcDbPolyline
 90
        2
 70
     0
 43
0.5
 10
249.0328402454089
 20
131.1846039540754
 10
249.032840245407
 20
123.1846039540754
  0
LWPOLYLINE
  5
577
330
1F
100
AcDbEntity
  8
Sichtbare_Kanten_TC_020513_DIN_
  6
Continuous
 62
     7
100
AcDbPolyline
 90
        2
 70
     0
 43
0.5
 10
249.032840245407
 20
120.7679666514854
 10
249.032840245407
 20
123.1846039540754
  0
LWPOLYLINE
  5
578
330
1F
100
AcDbEntity
  8
Sichtbare_Kanten_TC_020513_DIN_
  6
Continuous
 62
     7
100
AcDbPolyline
 90
        2
 70
     0
 43
0.5
 10
243.716202942816
 20
119.3679666514854
 10
247.632840245407
 20
119.3679666514854
  0
LWPOLYLINE
  5
579
330
1F
100
AcDbEntity
  8
Sichtbare_Kanten_TC_020513_DIN_
  6
Continuous
 62
     7
100
AcDbPolyline
 90
        2
 70
     0
 43
0.5
 10
242.9246581178839
 20
119.3679666514854
 10
243.716202942816
 20
119.3679666514854
  0
LWPOLYLINE
  5
57A
330
1F
100
AcDbEntity
  8
Sichtbare_Kanten_TC_020513_DIN_
  6
Continuous
 62
     7
100
AcDbPolyline
 90
        2
 70
     0
 43
0.5
 10
242.9246581178839
 20
119.3679666514854
 10
236.592299518428
 20
119.3679666514854
  0
LWPOLYLINE
  5
57B
330
1F
100
AcDbEntity
  8
Sichtbare_Kanten_TC_020513_DIN_
  6
Continuous
 62
     7
100
AcDbPolyline
 90
        2
 70
     0
 43
0.5
 10
236.592299518428
 20
119.3679666514854
 10
211.2733809723839
 20
119.3679666514854
  0
LWPOLYLINE
  5
57C
330
1F
100
AcDbEntity
  8
Sichtbare_Kanten_TC_020513_DIN_
  6
Continuous
 62
     7
100
AcDbPolyline
 90
        2
 70
     0
 43
0.5
 10
237.7162029428179
 20
117.8679666514854
 10
237.7162029428179
 20
117.0303117364774
  0
LWPOLYLINE
  5
57D
330
1F
100
AcDbEntity
  8
Sichtbare_Kanten_TC_020513_DIN_
  6
Continuous
 62
     7
100
AcDbPolyline
 90
        2
 70
     0
 43
0.5
 10
233.7162029428179
 20
117.5303117364774
 10
233.7162029428179
 20
117.8679666514854
  0
LWPOLYLINE
  5
57E
330
1F
100
AcDbEntity
  8
Sichtbare_Kanten_TC_020513_DIN_
  6
Continuous
 62
     7
100
AcDbPolyline
 90
        2
 70
     0
 43
0.5
 10
237.7162029428179
 20
117.0303117364774
 10
234.2162029428179
 20
117.0303117364774
  0
LWPOLYLINE
  5
57F
330
1F
100
AcDbEntity
  8
Sichtbare_Kanten_TC_020513_DIN_
  6
Continuous
 62
     7
100
AcDbPolyline
 90
        2
 70
     0
 43
0.5
 10
236.592299518428
 20
117.9679666514854
 10
211.2733809723839
 20
117.9679666514854
  0
LWPOLYLINE
  5
580
330
1F
100
AcDbEntity
  8
Sichtbare_Kanten_TC_020513_DIN_
  6
Continuous
 62
     7
100
AcDbPolyline
 90
        2
 70
     0
 43
0.5
 10
242.9246581178839
 20
117.9679666514854
 10
236.592299518428
 20
117.9679666514854
  0
LWPOLYLINE
  5
581
330
1F
100
AcDbEntity
  8
Sichtbare_Kanten_TC_020513_DIN_
  6
Continuous
 62
     7
100
AcDbPolyline
 90
        2
 70
     0
 43
0.5
 10
242.9246581178839
 20
117.9679666514854
 10
243.716202942816
 20
117.9679666514854
  0
LWPOLYLINE
  5
582
330
1F
100
AcDbEntity
  8
Sichtbare_Kanten_TC_020513_DIN_
  6
Continuous
 62
     7
100
AcDbPolyline
 90
        2
 70
     0
 43
0.5
 10
243.716202942816
 20
117.9679666514854
 10
247.632840245407
 20
117.9679666514854
  0
LWPOLYLINE
  5
583
330
1F
100
AcDbEntity
  8
Sichtbare_Kanten_TC_020513_DIN_
  6
Continuous
 62
     7
100
AcDbPolyline
 90
        2
 70
     0
 43
0.5
 10
210.1494775479999
 20
117.8679666514854
 10
210.1494775479999
 20
117.0303117364774
  0
LWPOLYLINE
  5
584
330
1F
100
AcDbEntity
  8
Sichtbare_Kanten_TC_020513_DIN_
  6
Continuous
 62
     7
100
AcDbPolyline
 90
        2
 70
     0
 43
0.5
 10
214.1494775479999
 20
117.5303117364774
 10
214.1494775479999
 20
117.8679666514854
  0
LWPOLYLINE
  5
585
330
1F
100
AcDbEntity
  8
Sichtbare_Kanten_TC_020513_DIN_
  6
Continuous
 62
     7
100
AcDbPolyline
 90
        2
 70
     0
 43
0.5
 10
210.1494775479999
 20
117.0303117364774
 10
213.6494775479999
 20
117.0303117364774
  0
LWPOLYLINE
  5
586
330
1F
100
AcDbEntity
  8
Sichtbare_Kanten_TC_020513_DIN_
  6
Continuous
 62
     7
100
AcDbPolyline
 90
        2
 70
     0
 43
0.5
 10
204.94102237293
 20
117.9679666514854
 10
211.2733809723839
 20
117.9679666514854
  0
LWPOLYLINE
  5
587
330
1F
100
AcDbEntity
  8
Sichtbare_Kanten_TC_020513_DIN_
  6
Continuous
 62
     7
100
AcDbPolyline
 90
        2
 70
     0
 43
0.5
 10
204.94102237293
 20
119.3679666514854
 10
211.2733809723839
 20
119.3679666514854
  0
LWPOLYLINE
  5
588
330
1F
100
AcDbEntity
  8
Sichtbare_Kanten_TC_020513_DIN_
  6
Continuous
 62
     7
100
AcDbPolyline
 90
        2
 70
     0
 43
0.5
 10
204.94102237293
 20
117.9679666514854
 10
204.149477547998
 20
117.9679666514854
  0
LWPOLYLINE
  5
589
330
1F
100
AcDbEntity
  8
Sichtbare_Kanten_TC_020513_DIN_
  6
Continuous
 62
     7
100
AcDbPolyline
 90
        2
 70
     0
 43
0.5
 10
204.94102237293
 20
119.3679666514854
 10
204.149477547998
 20
119.3679666514854
  0
LWPOLYLINE
  5
58A
330
1F
100
AcDbEntity
  8
Sichtbare_Kanten_TC_020513_DIN_
  6
Continuous
 62
     7
100
AcDbPolyline
 90
        2
 70
     0
 43
0.5
 10
204.149477547998
 20
119.3679666514854
 10
200.232840245407
 20
119.3679666514854
  0
LWPOLYLINE
  5
58B
330
1F
100
AcDbEntity
  8
Sichtbare_Kanten_TC_020513_DIN_
  6
Continuous
 62
     7
100
AcDbPolyline
 90
        2
 70
     0
 43
0.5
 10
204.149477547998
 20
117.9679666514854
 10
200.232840245407
 20
117.9679666514854
  0
LWPOLYLINE
  5
58C
330
1F
100
AcDbEntity
  8
Sichtbare_Kanten_TC_020513_DIN_
  6
Continuous
 62
     7
100
AcDbPolyline
 90
        2
 70
     0
 43
0.5
 10
197.432840245409
 20
131.1846039540754
 10
198.8328402454129
 20
131.1846039540754
  0
LWPOLYLINE
  5
58D
330
1F
100
AcDbEntity
  8
Sichtbare_Kanten_TC_020513_DIN_
  6
Continuous
 62
     7
100
AcDbPolyline
 90
        2
 70
     0
 43
0.5
 10
197.4328402454069
 20
120.7679666514854
 10
197.4328402454169
 20
115.4506635294694
  0
LWPOLYLINE
  5
58E
330
1F
100
AcDbEntity
  8
Sichtbare_Kanten_TC_020513_DIN_
  6
Continuous
 62
     7
100
AcDbPolyline
 90
        2
 70
     0
 43
0.5
 10
197.432840245416
 20
137.1846039540754
 10
197.432840245415
 20
136.4765796676545
  0
LWPOLYLINE
  5
58F
330
1F
100
AcDbEntity
  8
Sichtbare_Kanten_TC_020513_DIN_
  6
Continuous
 62
     7
100
AcDbPolyline
 90
        2
 70
     0
 43
0.5
 10
197.432840245415
 20
136.4765796676545
 10
197.432840245413
 20
131.3630162039835
  0
LWPOLYLINE
  5
590
330
1F
100
AcDbEntity
  8
Sichtbare_Kanten_TC_020513_DIN_
  6
Continuous
 62
     7
100
AcDbPolyline
 90
        2
 70
     0
 43
0.5
 10
197.432840245409
 20
131.1846039540754
 10
197.432840245413
 20
131.3630162039835
  0
LWPOLYLINE
  5
591
330
1F
100
AcDbEntity
  8
Sichtbare_Kanten_TC_020513_DIN_
  6
Continuous
 62
     7
100
AcDbPolyline
 90
        2
 70
     0
 43
0.5
 10
197.432840245409
 20
131.1846039540754
 10
197.4328402454069
 20
123.1846039540754
  0
LWPOLYLINE
  5
592
330
1F
100
AcDbEntity
  8
Sichtbare_Kanten_TC_020513_DIN_
  6
Continuous
 62
     7
100
AcDbPolyline
 90
        2
 70
     0
 43
0.5
 10
197.4328402454069
 20
120.7679666514854
 10
197.4328402454069
 20
123.1846039540754
  0
LWPOLYLINE
  5
593
330
1F
100
AcDbEntity
  8
Sichtbare_Kanten_TC_020513_DIN_
  6
Continuous
 62
     7
100
AcDbPolyline
 90
        2
 70
     0
 43
0.5
 10
198.832840245407
 20
120.7679666514854
 10
198.832840245407
 20
123.1846039540754
  0
LWPOLYLINE
  5
594
330
1F
100
AcDbEntity
  8
Sichtbare_Kanten_TC_020513_DIN_
  6
Continuous
 62
     7
100
AcDbPolyline
 90
        2
 70
     0
 43
0.5
 10
198.8328402454129
 20
131.1846039540754
 10
198.832840245407
 20
123.1846039540754
  0
LWPOLYLINE
  5
595
330
1F
100
AcDbEntity
  8
Sichtbare_Kanten_TC_020513_DIN_
  6
Continuous
 62
     7
100
AcDbPolyline
 90
        2
 70
     0
 43
0.5
 10
198.8328402454129
 20
131.1846039540754
 10
198.8328402454129
 20
131.3630162039835
  0
LWPOLYLINE
  5
596
330
1F
100
AcDbEntity
  8
Sichtbare_Kanten_TC_020513_DIN_
  6
Continuous
 62
     7
100
AcDbPolyline
 90
        2
 70
     0
 43
0.5
 10
198.832840245415
 20
136.4765796676545
 10
198.8328402454129
 20
131.3630162039835
  0
LWPOLYLINE
  5
597
330
1F
100
AcDbEntity
  8
Sichtbare_Kanten_TC_020513_DIN_
  6
Continuous
 62
     7
100
AcDbPolyline
 90
        2
 70
     0
 43
0.5
 10
198.832840245416
 20
137.1846039540754
 10
198.832840245415
 20
136.4765796676545
  0
LWPOLYLINE
  5
598
330
1F
100
AcDbEntity
  8
Sichtbare_Kanten_TC_020513_DIN_
  6
Continuous
 62
     7
100
AcDbPolyline
 90
        2
 70
     0
 43
0.5
 10
198.832840245414
 20
118.3430955208884
 10
198.832840245417
 20
115.4506635294694
  0
LWPOLYLINE
  5
599
330
1F
100
AcDbEntity
  8
Sichtbare_Kanten_TC_020513_DIN_
  6
Continuous
 62
     7
100
AcDbPolyline
 90
        2
 70
     0
 43
0.5
 10
237.7162029428179
 20
117.8679666514854
 10
237.7162029428179
 20
117.9679666514854
  0
LWPOLYLINE
  5
59A
330
1F
100
AcDbEntity
  8
Sichtbare_Kanten_TC_020513_DIN_
  6
Continuous
 62
     7
100
AcDbPolyline
 90
        2
 70
     0
 43
0.5
 10
233.7162029428179
 20
117.9679666514854
 10
233.7162029428179
 20
117.8679666514854
  0
LWPOLYLINE
  5
59B
330
1F
100
AcDbEntity
  8
Sichtbare_Kanten_TC_020513_DIN_
  6
Continuous
 62
     7
100
AcDbPolyline
 90
        2
 70
     0
 43
0.5
 10
214.1494775479999
 20
117.8679666514854
 10
214.1494775479999
 20
117.9679666514854
  0
LWPOLYLINE
  5
59C
330
1F
100
AcDbEntity
  8
Sichtbare_Kanten_TC_020513_DIN_
  6
Continuous
 62
     7
100
AcDbPolyline
 90
        2
 70
     0
 43
0.5
 10
210.1494775479999
 20
117.9679666514854
 10
210.1494775479999
 20
117.8679666514854
  0
LWPOLYLINE
  5
59D
330
1F
100
AcDbEntity
  8
Sichtbare_Kanten_TC_020513_DIN_
  6
Continuous
 62
     7
100
AcDbPolyline
 90
        2
 70
     0
 43
0.5
 10
201.5328402454159
 20
127.6846039540754
 10
201.582840245416
 20
127.6846039540754
  0
LWPOLYLINE
  5
59E
330
1F
100
AcDbEntity
  8
Sichtbare_Kanten_TC_020513_DIN_
  6
Continuous
 62
     7
100
AcDbPolyline
 90
        2
 70
     0
 43
0.5
 10
198.832840245416
 20
127.6846039540754
 10
200.132840245416
 20
127.6846039540754
  0
LWPOLYLINE
  5
59F
330
1F
100
AcDbEntity
  8
Sichtbare_Kanten_TC_020513_DIN_
  6
Continuous
 62
     7
100
AcDbPolyline
 90
        2
 70
     0
 43
0.5
 10
201.5328402454159
 20
132.6846039540754
 10
201.582840245416
 20
132.6846039540754
  0
LWPOLYLINE
  5
5A0
330
1F
100
AcDbEntity
  8
Sichtbare_Kanten_TC_020513_DIN_
  6
Continuous
 62
     7
100
AcDbPolyline
 90
        2
 70
     0
 43
0.5
 10
198.832840245416
 20
132.6846039540754
 10
200.132840245416
 20
132.6846039540754
  0
LWPOLYLINE
  5
5A1
330
1F
100
AcDbEntity
  8
Sichtbare_Kanten_TC_020513_DIN_
  6
Continuous
 62
     7
100
AcDbPolyline
 90
        2
 70
     0
 43
0.5
 10
196.832840245416
 20
127.6846039540754
 10
197.432840245416
 20
127.6846039540754
  0
LWPOLYLINE
  5
5A2
330
1F
100
AcDbEntity
  8
Sichtbare_Kanten_TC_020513_DIN_
  6
Continuous
 62
     7
100
AcDbPolyline
 90
        2
 70
     0
 43
0.5
 10
196.832840245416
 20
132.6846039540754
 10
197.432840245416
 20
132.6846039540754
  0
LWPOLYLINE
  5
5A3
330
1F
100
AcDbEntity
  8
Sichtbare_Kanten_TC_020513_DIN_
  6
Continuous
 62
     7
100
AcDbPolyline
 90
        2
 70
     0
 43
0.5
 10
201.582840245416
 20
128.6846039540754
 10
201.682840245416
 20
128.6846039540754
  0
LWPOLYLINE
  5
5A4
330
1F
100
AcDbEntity
  8
Sichtbare_Kanten_TC_020513_DIN_
  6
Continuous
 62
     7
100
AcDbPolyline
 90
        2
 70
     0
 43
0.5
 10
201.582840245416
 20
131.6846039540754
 10
201.682840245416
 20
131.6846039540754
  0
LWPOLYLINE
  5
5A5
330
1F
100
AcDbEntity
  8
Sichtbare_Kanten_TC_020513_DIN_
  6
Continuous
 62
     7
100
AcDbPolyline
 90
        2
 70
     0
 43
0.5
 10
247.732840245416
 20
127.6846039540754
 10
249.0328402454159
 20
127.6846039540754
  0
LWPOLYLINE
  5
5A6
330
1F
100
AcDbEntity
  8
Sichtbare_Kanten_TC_020513_DIN_
  6
Continuous
 62
     7
100
AcDbPolyline
 90
        2
 70
     0
 43
0.5
 10
246.2828402454159
 20
127.6846039540754
 10
246.3328402454159
 20
127.6846039540754
  0
LWPOLYLINE
  5
5A7
330
1F
100
AcDbEntity
  8
Sichtbare_Kanten_TC_020513_DIN_
  6
Continuous
 62
     7
100
AcDbPolyline
 90
        2
 70
     0
 43
0.5
 10
247.732840245416
 20
132.6846039540754
 10
249.0328402454159
 20
132.6846039540754
  0
LWPOLYLINE
  5
5A8
330
1F
100
AcDbEntity
  8
Sichtbare_Kanten_TC_020513_DIN_
  6
Continuous
 62
     7
100
AcDbPolyline
 90
        2
 70
     0
 43
0.5
 10
246.2828402454159
 20
132.6846039540754
 10
246.3328402454159
 20
132.6846039540754
  0
LWPOLYLINE
  5
5A9
330
1F
100
AcDbEntity
  8
Sichtbare_Kanten_TC_020513_DIN_
  6
Continuous
 62
     7
100
AcDbPolyline
 90
        2
 70
     0
 43
0.5
 10
250.432840245416
 20
127.6846039540754
 10
251.0328402454159
 20
127.6846039540754
  0
LWPOLYLINE
  5
5AA
330
1F
100
AcDbEntity
  8
Sichtbare_Kanten_TC_020513_DIN_
  6
Continuous
 62
     7
100
AcDbPolyline
 90
        2
 70
     0
 43
0.5
 10
250.432840245416
 20
132.6846039540754
 10
251.0328402454159
 20
132.6846039540754
  0
LWPOLYLINE
  5
5AB
330
1F
100
AcDbEntity
  8
Sichtbare_Kanten_TC_020513_DIN_
  6
Continuous
 62
     7
100
AcDbPolyline
 90
        2
 70
     0
 43
0.5
 10
246.182840245416
 20
128.6846039540754
 10
246.2828402454159
 20
128.6846039540754
  0
LWPOLYLINE
  5
5AC
330
1F
100
AcDbEntity
  8
Sichtbare_Kanten_TC_020513_DIN_
  6
Continuous
 62
     7
100
AcDbPolyline
 90
        2
 70
     0
 43
0.5
 10
246.182840245416
 20
131.6846039540754
 10
246.2828402454159
 20
131.6846039540754
  0
LWPOLYLINE
  5
5AD
330
1F
100
AcDbEntity
  8
Sichtbare_Kanten_TC_020513_DIN_
  6
Continuous
 62
     7
100
AcDbPolyline
 90
        2
 70
     0
 43
0.5
 10
195.432840245416
 20
126.1846039540754
 10
195.432840245416
 20
134.1846039540754
  0
LWPOLYLINE
  5
5AE
330
1F
100
AcDbEntity
  8
Sichtbare_Kanten_TC_020513_DIN_
  6
Continuous
 62
     7
100
AcDbPolyline
 90
        2
 70
     0
 43
0.5
 10
196.832840245416
 20
126.1846039540754
 10
196.832840245416
 20
134.1846039540754
  0
LWPOLYLINE
  5
5AF
330
1F
100
AcDbEntity
  8
Sichtbare_Kanten_TC_020513_DIN_
  6
Continuous
 62
     7
100
AcDbPolyline
 90
        2
 70
     0
 43
0.5
 10
201.582840245416
 20
127.6846039540754
 10
201.582840245416
 20
132.6846039540754
  0
LWPOLYLINE
  5
5B0
330
1F
100
AcDbEntity
  8
Sichtbare_Kanten_TC_020513_DIN_
  6
Continuous
 62
     7
100
AcDbPolyline
 90
        2
 70
     0
 43
0.5
 10
252.432840245416
 20
126.1846039540754
 10
252.432840245416
 20
134.1846039540754
  0
LWPOLYLINE
  5
5B1
330
1F
100
AcDbEntity
  8
Sichtbare_Kanten_TC_020513_DIN_
  6
Continuous
 62
     7
100
AcDbPolyline
 90
        2
 70
     0
 43
0.5
 10
251.0328402454159
 20
126.1846039540754
 10
251.0328402454159
 20
134.1846039540754
  0
LWPOLYLINE
  5
5B2
330
1F
100
AcDbEntity
  8
Sichtbare_Kanten_TC_020513_DIN_
  6
Continuous
 62
     7
100
AcDbPolyline
 90
        2
 70
     0
 43
0.5
 10
246.2828402454159
 20
127.6846039540754
 10
246.2828402454159
 20
132.6846039540754
  0
LWPOLYLINE
  5
5B3
330
1F
100
AcDbEntity
  8
Sichtbare_Kanten_TC_020513_DIN_
  6
Continuous
 62
     7
100
AcDbPolyline
 90
        2
 70
     0
 43
0.5
 10
245.9828402454119
 20
137.1846039540754
 10
240.18284024541
 20
137.1846039540754
  0
LWPOLYLINE
  5
5B4
330
1F
100
AcDbEntity
  8
Sichtbare_Kanten_TC_020513_DIN_
  6
Continuous
 62
     7
100
AcDbPolyline
 90
        2
 70
     0
 43
0.5
 10
245.9828402454119
 20
137.1846039540754
 10
245.9828402454119
 20
133.1846039540754
  0
LWPOLYLINE
  5
5B5
330
1F
100
AcDbEntity
  8
Sichtbare_Kanten_TC_020513_DIN_
  6
Continuous
 62
     7
100
AcDbPolyline
 90
        2
 70
     0
 43
0.5
 10
240.177645466833
 20
137.1846039540754
 10
240.18284024541
 20
137.1846039540754
  0
LWPOLYLINE
  5
5B6
330
1F
100
AcDbEntity
  8
Sichtbare_Kanten_TC_020513_DIN_
  6
Continuous
 62
     7
100
AcDbPolyline
 90
        2
 70
     0
 43
0.5
 10
207.68284024541
 20
137.1846039540754
 10
207.688035023987
 20
137.1846039540754
  0
LWPOLYLINE
  5
5B7
330
1F
100
AcDbEntity
  8
Sichtbare_Kanten_TC_020513_DIN_
  6
Continuous
 62
     7
100
AcDbPolyline
 90
        2
 70
     0
 43
0.5
 10
207.68284024541
 20
137.1846039540754
 10
201.882840245412
 20
137.1846039540754
  0
LWPOLYLINE
  5
5B8
330
1F
100
AcDbEntity
  8
Sichtbare_Kanten_TC_020513_DIN_
  6
Continuous
 62
     7
100
AcDbPolyline
 90
        2
 70
     0
 43
0.5
 10
201.882840245412
 20
137.1846039540754
 10
201.882840245412
 20
133.1846039540754
  0
LWPOLYLINE
  5
5B9
330
1F
100
AcDbEntity
  8
Sichtbare_Kanten_TC_020513_DIN_
  6
Continuous
 62
     7
100
AcDbPolyline
 90
        2
 70
     0
 43
0.5
 10
208.7928402454059
 20
68.18460395407583
 10
208.7928402454059
 20
83.57460395407583
  0
LWPOLYLINE
  5
5BA
330
1F
100
AcDbEntity
  8
Sichtbare_Kanten_TC_020513_DIN_
  6
Continuous
 62
     7
100
AcDbPolyline
 90
        2
 70
     0
 43
0.5
 10
239.072840245406
 20
83.57460395407583
 10
239.072840245406
 20
68.18460395407583
  0
LWPOLYLINE
  5
5BB
330
1F
100
AcDbEntity
  8
Sichtbare_Kanten_TC_020513_DIN_
  6
Continuous
 62
     7
100
AcDbPolyline
 90
        2
 70
     0
 43
0.5
 10
240.18284024541
 20
133.1846039540754
 10
246.1828402454119
 20
133.1846039540754
  0
LWPOLYLINE
  5
5BC
330
1F
100
AcDbEntity
  8
Sichtbare_Kanten_TC_020513_DIN_
  6
Continuous
 62
     7
100
AcDbPolyline
 90
        2
 70
     0
 43
0.5
 10
208.723263758406
 20
133.1846039540754
 10
207.68284024541
 20
133.1846039540754
  0
LWPOLYLINE
  5
5BD
330
1F
100
AcDbEntity
  8
Sichtbare_Kanten_TC_020513_DIN_
  6
Continuous
 62
     7
100
AcDbPolyline
 90
        2
 70
     0
 43
0.5
 10
240.18284024541
 20
133.1846039540754
 10
239.142416732413
 20
133.1846039540754
  0
LWPOLYLINE
  5
5BE
330
1F
100
AcDbEntity
  8
Sichtbare_Kanten_TC_020513_DIN_
  6
Continuous
 62
     7
100
AcDbPolyline
 90
        2
 70
     0
 43
0.5
 10
201.6828402454119
 20
119.3679666514854
 10
201.6828402454119
 20
133.1846039540754
  0
LWPOLYLINE
  5
5BF
330
1F
100
AcDbEntity
  8
Sichtbare_Kanten_TC_020513_DIN_
  6
Continuous
 62
     7
100
AcDbPolyline
 90
        2
 70
     0
 43
0.5
 10
201.6828402454119
 20
68.18460395407583
 10
201.6828402454119
 20
117.9679666514854
  0
LWPOLYLINE
  5
5C0
330
1F
100
AcDbEntity
  8
Sichtbare_Kanten_TC_020513_DIN_
  6
Continuous
 62
     7
100
AcDbPolyline
 90
        2
 70
     0
 43
0.5
 10
201.6828402454119
 20
133.1846039540754
 10
207.68284024541
 20
133.1846039540754
  0
LWPOLYLINE
  5
5C1
330
1F
100
AcDbEntity
  8
Sichtbare_Kanten_TC_020513_DIN_
  6
Continuous
 62
     7
100
AcDbPolyline
 90
        2
 70
     0
 43
0.5
 10
246.1828402454119
 20
119.3679666514854
 10
246.1828402454119
 20
133.1846039540754
  0
LWPOLYLINE
  5
5C2
330
1F
100
AcDbEntity
  8
Sichtbare_Kanten_TC_020513_DIN_
  6
Continuous
 62
     7
100
AcDbPolyline
 90
        2
 70
     0
 43
0.5
 10
246.1828402454119
 20
68.18460395407583
 10
246.1828402454119
 20
117.9679666514854
  0
LWPOLYLINE
  5
5C3
330
1F
100
AcDbEntity
  8
Sichtbare_Kanten_TC_020513_DIN_
  6
Continuous
 62
     7
100
AcDbPolyline
 90
        2
 70
     0
 43
0.5
 10
252.432840245406
 20
64.18460395407583
 10
252.432840245406
 20
68.18460395407583
  0
LWPOLYLINE
  5
5C4
330
1F
100
AcDbEntity
  8
Sichtbare_Kanten_TC_020513_DIN_
  6
Continuous
 62
     7
100
AcDbPolyline
 90
        2
 70
     0
 43
0.5
 10
195.432840245406
 20
64.18460395407583
 10
195.432840245406
 20
68.18460395407583
  0
LWPOLYLINE
  5
5C5
330
1F
100
AcDbEntity
  8
Sichtbare_Kanten_TC_020513_DIN_
  6
Continuous
 62
     7
100
AcDbPolyline
 90
        2
 70
     0
 43
0.5
 10
252.432840245406
 20
68.18460395407583
 10
239.072840245406
 20
68.18460395407583
  0
LWPOLYLINE
  5
5C6
330
1F
100
AcDbEntity
  8
Sichtbare_Kanten_TC_020513_DIN_
  6
Continuous
 62
     7
100
AcDbPolyline
 90
        2
 70
     0
 43
0.5
 10
208.7928402454059
 20
68.18460395407583
 10
195.432840245406
 20
68.18460395407583
  0
LWPOLYLINE
  5
5C7
330
1F
100
AcDbEntity
  8
Sichtbare_Kanten_TC_020513_DIN_
  6
Continuous
 62
     7
100
AcDbPolyline
 90
        2
 70
     0
 43
0.5
 10
252.432840245406
 20
64.18460395407583
 10
195.432840245406
 20
64.18460395407583
  0
LWPOLYLINE
  5
5C8
330
1F
100
AcDbEntity
  8
Sichtbare_Kanten_TC_020513_DIN_
  6
Continuous
 62
     7
100
AcDbPolyline
 90
        2
 70
     0
 43
0.5
 10
47.98046145048818
 20
137.5455892890705
 10
45.18046145048817
 20
137.5455892890705
  0
LWPOLYLINE
  5
5C9
330
1F
100
AcDbEntity
  8
Sichtbare_Kanten_TC_020513_DIN_
  6
Continuous
 62
     7
100
AcDbPolyline
 90
        2
 70
     0
 43
0.5
 10
45.18046145048817
 20
137.5455892890705
 10
45.18046145048817
 20
146.8697994088414
  0
LWPOLYLINE
  5
5CA
330
1F
100
AcDbEntity
  8
Sichtbare_Kanten_TC_020513_DIN_
  6
Continuous
 62
     7
100
AcDbPolyline
 90
        2
 70
     0
 43
0.5
 10
45.54031251613338
 20
147.5455892890705
 10
46.4879628029027
 20
147.5455892890705
  0
LWPOLYLINE
  5
5CB
330
1F
100
AcDbEntity
  8
Sichtbare_Kanten_TC_020513_DIN_
  6
Continuous
 62
     7
100
AcDbPolyline
 90
        2
 70
     0
 43
0.5
 10
43.78046145048819
 20
147.3622265916615
 10
43.78046145048819
 20
147.9782277219414
  0
LWPOLYLINE
  5
5CC
330
1F
100
AcDbEntity
  8
Sichtbare_Kanten_TC_020513_DIN_
  6
Continuous
 62
     7
100
AcDbPolyline
 90
        2
 70
     0
 43
0.5
 10
43.78046145048819
 20
147.9782277219414
 10
43.78046145048819
 20
148.7622265916614
  0
LWPOLYLINE
  5
5CD
330
1F
100
AcDbEntity
  8
Sichtbare_Kanten_TC_020513_DIN_
  6
Continuous
 62
     7
100
AcDbPolyline
 90
        2
 70
     0
 43
0.5
 10
77.84709875307897
 20
119.9469490390684
 10
77.84709875307897
 20
120.0469490390684
  0
LWPOLYLINE
  5
5CE
330
1F
100
AcDbEntity
  8
Sichtbare_Kanten_TC_020513_DIN_
  6
Continuous
 62
     7
100
AcDbPolyline
 90
        2
 70
     0
 43
0.5
 10
74.94709875307899
 20
120.0469490390684
 10
74.94709875307899
 20
119.9469490390684
  0
LWPOLYLINE
  5
5CF
330
1F
100
AcDbEntity
  8
Sichtbare_Kanten_TC_020513_DIN_
  6
Continuous
 62
     7
100
AcDbPolyline
 90
        2
 70
     0
 43
0.5
 10
45.18046145048817
 20
135.9854122605734
 10
45.7964653034245
 20
135.9854122605734
  0
LWPOLYLINE
  5
5D0
330
1F
100
AcDbEntity
  8
Sichtbare_Kanten_TC_020513_DIN_
  6
Continuous
 62
     7
100
AcDbPolyline
 90
        2
 70
     0
 43
0.5
 10
45.7964653034245
 20
135.9854122605734
 10
46.5804614504882
 20
135.9854122605734
  0
LWPOLYLINE
  5
5D1
330
1F
100
AcDbEntity
  8
Sichtbare_Kanten_TC_020513_DIN_
  6
Continuous
 62
     7
100
AcDbPolyline
 90
        2
 70
     0
 43
0.5
 10
46.31812325419088
 20
134.8020811276994
 10
45.60758144109906
 20
135.1334122165835
  0
LWPOLYLINE
  5
5D2
330
1F
100
AcDbEntity
  8
Sichtbare_Kanten_TC_020513_DIN_
  6
Continuous
 62
     7
100
AcDbPolyline
 90
        2
 70
     0
 43
0.5
 10
45.60758144109906
 20
135.1334122165835
 10
45.04929235233959
 20
135.3937466941364
  0
LWPOLYLINE
  5
5D3
330
1F
100
AcDbEntity
  8
Sichtbare_Kanten_TC_020513_DIN_
  6
Continuous
 62
     7
100
AcDbPolyline
 90
        2
 70
     0
 43
0.5
 10
128.5137360556699
 20
146.8697994088414
 10
128.5137360556699
 20
137.5455892890705
  0
LWPOLYLINE
  5
5D4
330
1F
100
AcDbEntity
  8
Sichtbare_Kanten_TC_020513_DIN_
  6
Continuous
 62
     7
100
AcDbPolyline
 90
        2
 70
     0
 43
0.5
 10
128.5137360556699
 20
137.5455892890705
 10
125.71373605567
 20
137.5455892890705
  0
LWPOLYLINE
  5
5D5
330
1F
100
AcDbEntity
  8
Sichtbare_Kanten_TC_020513_DIN_
  6
Continuous
 62
     7
100
AcDbPolyline
 90
        2
 70
     0
 43
0.5
 10
127.206234703255
 20
147.5455892890705
 10
128.153884990025
 20
147.5455892890705
  0
LWPOLYLINE
  5
5D6
330
1F
100
AcDbEntity
  8
Sichtbare_Kanten_TC_020513_DIN_
  6
Continuous
 62
     7
100
AcDbPolyline
 90
        2
 70
     0
 43
0.5
 10
129.91373605567
 20
148.7622265916614
 10
129.91373605567
 20
147.9782277219424
  0
LWPOLYLINE
  5
5D7
330
1F
100
AcDbEntity
  8
Sichtbare_Kanten_TC_020513_DIN_
  6
Continuous
 62
     7
100
AcDbPolyline
 90
        2
 70
     0
 43
0.5
 10
129.91373605567
 20
147.9782277219424
 10
129.91373605567
 20
147.3622265916615
  0
LWPOLYLINE
  5
5D8
330
1F
100
AcDbEntity
  8
Sichtbare_Kanten_TC_020513_DIN_
  6
Continuous
 62
     7
100
AcDbPolyline
 90
        2
 70
     0
 43
0.5
 10
131.213500814466
 20
129.8853755238874
 10
128.6449051538179
 20
135.3937466941364
  0
LWPOLYLINE
  5
5D9
330
1F
100
AcDbEntity
  8
Sichtbare_Kanten_TC_020513_DIN_
  6
Continuous
 62
     7
100
AcDbPolyline
 90
        2
 70
     0
 43
0.5
 10
127.376074251967
 20
134.8020811276994
 10
129.944669912614
 20
129.2937099574504
  0
LWPOLYLINE
  5
5DA
330
1F
100
AcDbEntity
  8
Sichtbare_Kanten_TC_020513_DIN_
  6
Continuous
 62
     7
100
AcDbPolyline
 90
        2
 70
     0
 43
0.5
 10
131.213500814466
 20
129.8853755238874
 10
131.839974028054
 20
128.5418993818335
  0
LWPOLYLINE
  5
5DB
330
1F
100
AcDbEntity
  8
Sichtbare_Kanten_TC_020513_DIN_
  6
Continuous
 62
     7
100
AcDbPolyline
 90
        2
 70
     0
 43
0.5
 10
131.839974028054
 20
128.5418993818335
 10
130.571143126203
 20
127.9502338153964
  0
LWPOLYLINE
  5
5DC
330
1F
100
AcDbEntity
  8
Sichtbare_Kanten_TC_020513_DIN_
  6
Continuous
 62
     7
100
AcDbPolyline
 90
        2
 70
     0
 43
0.5
 10
130.571143126203
 20
127.9502338153964
 10
129.944669912614
 20
129.2937099574504
  0
LWPOLYLINE
  5
5DD
330
1F
100
AcDbEntity
  8
Sichtbare_Kanten_TC_020513_DIN_
  6
Continuous
 62
     7
100
AcDbPolyline
 90
        2
 70
     0
 43
0.5
 10
95.84709875307897
 20
119.9469490390684
 10
95.84709875307897
 20
118.5469490390684
  0
LWPOLYLINE
  5
5DE
330
1F
100
AcDbEntity
  8
Sichtbare_Kanten_TC_020513_DIN_
  6
Continuous
 62
     7
100
AcDbPolyline
 90
        2
 70
     0
 43
0.5
 10
95.84709875307897
 20
119.9469490390684
 10
96.34709875307897
 20
119.9469490390684
  0
LWPOLYLINE
  5
5DF
330
1F
100
AcDbEntity
  8
Sichtbare_Kanten_TC_020513_DIN_
  6
Continuous
 62
     7
100
AcDbPolyline
 90
        2
 70
     0
 43
0.5
 10
96.34709875307897
 20
118.5469490390684
 10
95.84709875307897
 20
118.5469490390684
  0
LWPOLYLINE
  5
5E0
330
1F
100
AcDbEntity
  8
Sichtbare_Kanten_TC_020513_DIN_
  6
Continuous
 62
     7
100
AcDbPolyline
 90
        2
 70
     0
 43
0.5
 10
98.24709875307894
 20
119.9469490390684
 10
96.34709875307897
 20
119.9469490390684
  0
LWPOLYLINE
  5
5E1
330
1F
100
AcDbEntity
  8
Sichtbare_Kanten_TC_020513_DIN_
  6
Continuous
 62
     7
100
AcDbPolyline
 90
        2
 70
     0
 43
0.5
 10
96.34709875307897
 20
118.5469490390684
 10
98.24709875307894
 20
118.5469490390684
  0
LWPOLYLINE
  5
5E2
330
1F
100
AcDbEntity
  8
Sichtbare_Kanten_TC_020513_DIN_
  6
Continuous
 62
     7
100
AcDbPolyline
 90
        2
 70
     0
 43
0.5
 10
98.24709875307894
 20
119.9469490390684
 10
98.74709875307894
 20
119.9469490390684
  0
LWPOLYLINE
  5
5E3
330
1F
100
AcDbEntity
  8
Sichtbare_Kanten_TC_020513_DIN_
  6
Continuous
 62
     7
100
AcDbPolyline
 90
        2
 70
     0
 43
0.5
 10
98.74709875307894
 20
119.9469490390684
 10
98.74709875307894
 20
118.5469490390684
  0
LWPOLYLINE
  5
5E4
330
1F
100
AcDbEntity
  8
Sichtbare_Kanten_TC_020513_DIN_
  6
Continuous
 62
     7
100
AcDbPolyline
 90
        2
 70
     0
 43
0.5
 10
98.74709875307894
 20
118.5469490390684
 10
98.24709875307894
 20
118.5469490390684
  0
LWPOLYLINE
  5
5E5
330
1F
100
AcDbEntity
  8
Sichtbare_Kanten_TC_020513_DIN_
  6
Continuous
 62
     7
100
AcDbPolyline
 90
        2
 70
     0
 43
0.5
 10
134.848011448466
 20
148.7622265916614
 10
129.91373605567
 20
148.7622265916614
  0
LWPOLYLINE
  5
5E6
330
1F
100
AcDbEntity
  8
Sichtbare_Kanten_TC_020513_DIN_
  6
Continuous
 62
     7
100
AcDbPolyline
 90
        2
 70
     0
 43
0.5
 10
129.91373605567
 20
147.3622265916615
 10
134.848011448466
 20
147.3622265916615
  0
LWPOLYLINE
  5
5E7
330
1F
100
AcDbEntity
  8
Sichtbare_Kanten_TC_020513_DIN_
  6
Continuous
 62
     7
100
AcDbPolyline
 90
        2
 70
     0
 43
0.5
 10
136.330373358261
 20
147.3622265916615
 10
136.330373358261
 20
148.7622265916614
  0
LWPOLYLINE
  5
5E8
330
1F
100
AcDbEntity
  8
Sichtbare_Kanten_TC_020513_DIN_
  6
Continuous
 62
     7
100
AcDbPolyline
 90
        2
 70
     0
 43
0.5
 10
136.330373358261
 20
147.3622265916615
 10
134.848011448466
 20
147.3622265916615
  0
LWPOLYLINE
  5
5E9
330
1F
100
AcDbEntity
  8
Sichtbare_Kanten_TC_020513_DIN_
  6
Continuous
 62
     7
100
AcDbPolyline
 90
        2
 70
     0
 43
0.5
 10
134.848011448466
 20
148.7622265916614
 10
136.330373358261
 20
148.7622265916614
  0
LWPOLYLINE
  5
5EA
330
1F
100
AcDbEntity
  8
Sichtbare_Kanten_TC_020513_DIN_
  6
Continuous
 62
     7
100
AcDbPolyline
 90
        2
 70
     0
 43
0.5
 10
128.5137360556699
 20
137.3602940503465
 10
128.5137360556699
 20
137.5455892890705
  0
LWPOLYLINE
  5
5EB
330
1F
100
AcDbEntity
  8
Sichtbare_Kanten_TC_020513_DIN_
  6
Continuous
 62
     7
100
AcDbPolyline
 90
        2
 70
     0
 43
0.5
 10
127.11373605567
 20
137.5455892890705
 10
127.11373605567
 20
137.3602940503465
  0
LWPOLYLINE
  5
5EC
330
1F
100
AcDbEntity
  8
Sichtbare_Kanten_TC_020513_DIN_
  6
Continuous
 62
     7
100
AcDbPolyline
 90
        2
 70
     0
 43
0.5
 10
127.11373605567
 20
137.3602940503465
 10
127.11373605567
 20
135.9854122605734
  0
LWPOLYLINE
  5
5ED
330
1F
100
AcDbEntity
  8
Sichtbare_Kanten_TC_020513_DIN_
  6
Continuous
 62
     7
100
AcDbPolyline
 90
        2
 70
     0
 43
0.5
 10
128.5137360556699
 20
135.9854122605734
 10
128.5137360556699
 20
137.3602940503465
  0
LWPOLYLINE
  5
5EE
330
1F
100
AcDbEntity
  8
Sichtbare_Kanten_TC_020513_DIN_
  6
Continuous
 62
     7
100
AcDbPolyline
 90
        2
 70
     0
 43
0.5
 10
95.84709875307897
 20
120.0469490390684
 10
95.84709875307897
 20
120.0859917729414
  0
LWPOLYLINE
  5
5EF
330
1F
100
AcDbEntity
  8
Sichtbare_Kanten_TC_020513_DIN_
  6
Continuous
 62
     7
100
AcDbPolyline
 90
        2
 70
     0
 43
0.5
 10
103.347098753079
 20
136.5091592744124
 10
103.347098753079
 20
138.1846039540754
  0
LWPOLYLINE
  5
5F0
330
1F
100
AcDbEntity
  8
Sichtbare_Kanten_TC_020513_DIN_
  6
Continuous
 62
     7
100
AcDbPolyline
 90
        2
 70
     0
 43
0.5
 10
103.347098753079
 20
138.1846039540754
 10
105.575976689415
 20
141.3997384847745
  0
LWPOLYLINE
  5
5F1
330
1F
100
AcDbEntity
  8
Sichtbare_Kanten_TC_020513_DIN_
  6
Continuous
 62
     7
100
AcDbPolyline
 90
        2
 70
     0
 43
0.5
 10
105.634100708749
 20
141.8578142210905
 10
104.568455700255
 20
144.7434963572034
  0
LWPOLYLINE
  5
5F2
330
1F
100
AcDbEntity
  8
Sichtbare_Kanten_TC_020513_DIN_
  6
Continuous
 62
     7
100
AcDbPolyline
 90
        2
 70
     0
 43
0.5
 10
96.08681707225077
 20
155.1846039540754
 10
104.086817072251
 20
155.1846039540754
  0
LWPOLYLINE
  5
5F3
330
1F
100
AcDbEntity
  8
Sichtbare_Kanten_TC_020513_DIN_
  6
Continuous
 62
     7
100
AcDbPolyline
 90
        2
 70
     0
 43
0.5
 10
122.372544279508
 20
150.0280652228655
 10
125.71373605567
 20
147.9808455382674
  0
LWPOLYLINE
  5
5F4
330
1F
100
AcDbEntity
  8
Sichtbare_Kanten_TC_020513_DIN_
  6
Continuous
 62
     7
100
AcDbPolyline
 90
        2
 70
     0
 43
0.5
 10
125.71373605567
 20
137.5455892890705
 10
124.347098753079
 20
137.5455892890705
  0
LWPOLYLINE
  5
5F5
330
1F
100
AcDbEntity
  8
Sichtbare_Kanten_TC_020513_DIN_
  6
Continuous
 62
     7
100
AcDbPolyline
 90
        2
 70
     0
 43
0.5
 10
123.562799226893
 20
137.9252069446854
 10
120.739248516172
 20
141.4947951262684
  0
LWPOLYLINE
  5
5F6
330
1F
100
AcDbEntity
  8
Sichtbare_Kanten_TC_020513_DIN_
  6
Continuous
 62
     7
100
AcDbPolyline
 90
        2
 70
     0
 43
0.5
 10
120.036907580886
 20
141.5767537171684
 10
109.923150691652
 20
133.5767537171684
  0
LWPOLYLINE
  5
5F7
330
1F
100
AcDbEntity
  8
Sichtbare_Kanten_TC_020513_DIN_
  6
Continuous
 62
     7
100
AcDbPolyline
 90
        2
 70
     0
 43
0.5
 10
109.735244514799
 20
133.2281818254494
 10
109.608144159473
 20
131.7754181163794
  0
LWPOLYLINE
  5
5F8
330
1F
100
AcDbEntity
  8
Sichtbare_Kanten_TC_020513_DIN_
  6
Continuous
 62
     7
100
AcDbPolyline
 90
        2
 70
     0
 43
0.5
 10
98.78323941471399
 20
120.1846039540754
 10
98.74709875307894
 20
120.1846039540754
  0
LWPOLYLINE
  5
5F9
330
1F
100
AcDbEntity
  8
Sichtbare_Kanten_TC_020513_DIN_
  6
Continuous
 62
     7
100
AcDbPolyline
 90
        2
 70
     0
 43
0.5
 10
98.74709875307894
 20
120.1846039540754
 10
98.74709875307894
 20
120.0469490390684
  0
LWPOLYLINE
  5
5FA
330
1F
100
AcDbEntity
  8
Sichtbare_Kanten_TC_020513_DIN_
  6
Continuous
 62
     7
100
AcDbPolyline
 90
        2
 70
     0
 43
0.5
 10
98.74709875307894
 20
119.9469490390684
 10
98.74709875307894
 20
120.0469490390684
  0
LWPOLYLINE
  5
5FB
330
1F
100
AcDbEntity
  8
Sichtbare_Kanten_TC_020513_DIN_
  6
Continuous
 62
     7
100
AcDbPolyline
 90
        2
 70
     0
 43
0.5
 10
95.84709875307897
 20
120.0469490390684
 10
95.84709875307897
 20
119.9469490390684
  0
LWPOLYLINE
  5
5FC
330
1F
100
AcDbEntity
  8
Sichtbare_Kanten_TC_020513_DIN_
  6
Continuous
 62
     7
100
AcDbPolyline
 90
        2
 70
     0
 43
0.5
 10
127.11373605567
 20
135.9854122605734
 10
127.897732202733
 20
135.9854122605734
  0
LWPOLYLINE
  5
5FD
330
1F
100
AcDbEntity
  8
Sichtbare_Kanten_TC_020513_DIN_
  6
Continuous
 62
     7
100
AcDbPolyline
 90
        2
 70
     0
 43
0.5
 10
127.897732202733
 20
135.9854122605734
 10
128.5137360556699
 20
135.9854122605734
  0
LWPOLYLINE
  5
5FE
330
1F
100
AcDbEntity
  8
Sichtbare_Kanten_TC_020513_DIN_
  6
Continuous
 62
     7
100
AcDbPolyline
 90
        2
 70
     0
 43
0.5
 10
128.6449051538179
 20
135.3937466941364
 10
128.086616065055
 20
135.1334122165814
  0
LWPOLYLINE
  5
5FF
330
1F
100
AcDbEntity
  8
Sichtbare_Kanten_TC_020513_DIN_
  6
Continuous
 62
     7
100
AcDbPolyline
 90
        2
 70
     0
 43
0.5
 10
128.086616065055
 20
135.1334122165814
 10
127.376074251967
 20
134.8020811276994
  0
LWPOLYLINE
  5
600
330
1F
100
AcDbEntity
  8
Sichtbare_Kanten_TC_020513_DIN_
  6
Continuous
 62
     7
100
AcDbPolyline
 90
        2
 70
     0
 43
0.5
 10
49.04709875307896
 20
120.7679666514854
 10
49.04709875307896
 20
117.9679666514854
  0
LWPOLYLINE
  5
601
330
1F
100
AcDbEntity
  8
Sichtbare_Kanten_TC_020513_DIN_
  6
Continuous
 62
     7
100
AcDbPolyline
 90
        2
 70
     0
 43
0.5
 10
42.04709875307896
 20
117.9679666514854
 10
42.04709875307896
 20
120.7679666514854
  0
LWPOLYLINE
  5
602
330
1F
100
AcDbEntity
  8
Sichtbare_Kanten_TC_020513_DIN_
  6
Continuous
 62
     7
100
AcDbPolyline
 90
        2
 70
     0
 43
0.5
 10
49.04709875307896
 20
117.9679666514854
 10
42.04709875307896
 20
117.9679666514854
  0
LWPOLYLINE
  5
603
330
1F
100
AcDbEntity
  8
Sichtbare_Kanten_TC_020513_DIN_
  6
Continuous
 62
     7
100
AcDbPolyline
 90
        2
 70
     0
 43
0.5
 10
46.31812325419088
 20
134.8020811276994
 10
43.74952759354346
 20
129.2937099574504
  0
LWPOLYLINE
  5
604
330
1F
100
AcDbEntity
  8
Sichtbare_Kanten_TC_020513_DIN_
  6
Continuous
 62
     7
100
AcDbPolyline
 90
        2
 70
     0
 43
0.5
 10
42.48069669169217
 20
129.8853755238874
 10
45.04929235233959
 20
135.3937466941364
  0
LWPOLYLINE
  5
605
330
1F
100
AcDbEntity
  8
Sichtbare_Kanten_TC_020513_DIN_
  6
Continuous
 62
     7
100
AcDbPolyline
 90
        2
 70
     0
 43
0.5
 10
41.85422347810396
 20
128.5418993818335
 10
43.12305437995531
 20
127.9502338153964
  0
LWPOLYLINE
  5
606
330
1F
100
AcDbEntity
  8
Sichtbare_Kanten_TC_020513_DIN_
  6
Continuous
 62
     7
100
AcDbPolyline
 90
        2
 70
     0
 43
0.5
 10
42.48069669169217
 20
129.8853755238874
 10
41.85422347810396
 20
128.5418993818335
  0
LWPOLYLINE
  5
607
330
1F
100
AcDbEntity
  8
Sichtbare_Kanten_TC_020513_DIN_
  6
Continuous
 62
     7
100
AcDbPolyline
 90
        2
 70
     0
 43
0.5
 10
43.12305437995531
 20
127.9502338153964
 10
43.74952759354346
 20
129.2937099574504
  0
LWPOLYLINE
  5
608
330
1F
100
AcDbEntity
  8
Sichtbare_Kanten_TC_020513_DIN_
  6
Continuous
 62
     7
100
AcDbPolyline
 90
        2
 70
     0
 43
0.5
 10
77.84709875307897
 20
119.9469490390684
 10
77.34709875307897
 20
119.9469490390684
  0
LWPOLYLINE
  5
609
330
1F
100
AcDbEntity
  8
Sichtbare_Kanten_TC_020513_DIN_
  6
Continuous
 62
     7
100
AcDbPolyline
 90
        2
 70
     0
 43
0.5
 10
77.84709875307897
 20
119.9469490390684
 10
77.84709875307897
 20
118.5469490390684
  0
LWPOLYLINE
  5
60A
330
1F
100
AcDbEntity
  8
Sichtbare_Kanten_TC_020513_DIN_
  6
Continuous
 62
     7
100
AcDbPolyline
 90
        2
 70
     0
 43
0.5
 10
77.34709875307897
 20
118.5469490390684
 10
77.84709875307897
 20
118.5469490390684
  0
LWPOLYLINE
  5
60B
330
1F
100
AcDbEntity
  8
Sichtbare_Kanten_TC_020513_DIN_
  6
Continuous
 62
     7
100
AcDbPolyline
 90
        2
 70
     0
 43
0.5
 10
75.44709875307899
 20
119.9469490390684
 10
77.34709875307897
 20
119.9469490390684
  0
LWPOLYLINE
  5
60C
330
1F
100
AcDbEntity
  8
Sichtbare_Kanten_TC_020513_DIN_
  6
Continuous
 62
     7
100
AcDbPolyline
 90
        2
 70
     0
 43
0.5
 10
77.34709875307897
 20
118.5469490390684
 10
75.44709875307899
 20
118.5469490390684
  0
LWPOLYLINE
  5
60D
330
1F
100
AcDbEntity
  8
Sichtbare_Kanten_TC_020513_DIN_
  6
Continuous
 62
     7
100
AcDbPolyline
 90
        2
 70
     0
 43
0.5
 10
75.44709875307899
 20
119.9469490390684
 10
74.94709875307899
 20
119.9469490390684
  0
LWPOLYLINE
  5
60E
330
1F
100
AcDbEntity
  8
Sichtbare_Kanten_TC_020513_DIN_
  6
Continuous
 62
     7
100
AcDbPolyline
 90
        2
 70
     0
 43
0.5
 10
74.94709875307899
 20
118.5469490390684
 10
75.44709875307899
 20
118.5469490390684
  0
LWPOLYLINE
  5
60F
330
1F
100
AcDbEntity
  8
Sichtbare_Kanten_TC_020513_DIN_
  6
Continuous
 62
     7
100
AcDbPolyline
 90
        2
 70
     0
 43
0.5
 10
74.94709875307899
 20
119.9469490390684
 10
74.94709875307899
 20
118.5469490390684
  0
LWPOLYLINE
  5
610
330
1F
100
AcDbEntity
  8
Sichtbare_Kanten_TC_020513_DIN_
  6
Continuous
 62
     7
100
AcDbPolyline
 90
        2
 70
     0
 43
0.5
 10
43.78046145048819
 20
147.3622265916615
 10
38.84618605769248
 20
147.3622265916615
  0
LWPOLYLINE
  5
611
330
1F
100
AcDbEntity
  8
Sichtbare_Kanten_TC_020513_DIN_
  6
Continuous
 62
     7
100
AcDbPolyline
 90
        2
 70
     0
 43
0.5
 10
38.84618605769248
 20
148.7622265916614
 10
43.78046145048819
 20
148.7622265916614
  0
LWPOLYLINE
  5
612
330
1F
100
AcDbEntity
  8
Sichtbare_Kanten_TC_020513_DIN_
  6
Continuous
 62
     7
100
AcDbPolyline
 90
        2
 70
     0
 43
0.5
 10
37.3638241478975
 20
147.3622265916615
 10
38.84618605769248
 20
147.3622265916615
  0
LWPOLYLINE
  5
613
330
1F
100
AcDbEntity
  8
Sichtbare_Kanten_TC_020513_DIN_
  6
Continuous
 62
     7
100
AcDbPolyline
 90
        2
 70
     0
 43
0.5
 10
37.3638241478975
 20
147.3622265916615
 10
37.3638241478975
 20
148.7622265916614
  0
LWPOLYLINE
  5
614
330
1F
100
AcDbEntity
  8
Sichtbare_Kanten_TC_020513_DIN_
  6
Continuous
 62
     7
100
AcDbPolyline
 90
        2
 70
     0
 43
0.5
 10
38.84618605769248
 20
148.7622265916614
 10
37.3638241478975
 20
148.7622265916614
  0
LWPOLYLINE
  5
615
330
1F
100
AcDbEntity
  8
Sichtbare_Kanten_TC_020513_DIN_
  6
Continuous
 62
     7
100
AcDbPolyline
 90
        2
 70
     0
 43
0.5
 10
45.18046145048817
 20
137.3602940503465
 10
45.18046145048817
 20
137.5455892890705
  0
LWPOLYLINE
  5
616
330
1F
100
AcDbEntity
  8
Sichtbare_Kanten_TC_020513_DIN_
  6
Continuous
 62
     7
100
AcDbPolyline
 90
        2
 70
     0
 43
0.5
 10
46.5804614504882
 20
137.5455892890705
 10
46.5804614504882
 20
137.3602940503465
  0
LWPOLYLINE
  5
617
330
1F
100
AcDbEntity
  8
Sichtbare_Kanten_TC_020513_DIN_
  6
Continuous
 62
     7
100
AcDbPolyline
 90
        2
 70
     0
 43
0.5
 10
45.18046145048817
 20
135.9854122605734
 10
45.18046145048817
 20
137.3602940503465
  0
LWPOLYLINE
  5
618
330
1F
100
AcDbEntity
  8
Sichtbare_Kanten_TC_020513_DIN_
  6
Continuous
 62
     7
100
AcDbPolyline
 90
        2
 70
     0
 43
0.5
 10
46.5804614504882
 20
137.3602940503465
 10
46.5804614504882
 20
135.9854122605734
  0
LWPOLYLINE
  5
619
330
1F
100
AcDbEntity
  8
Sichtbare_Kanten_TC_020513_DIN_
  6
Continuous
 62
     7
100
AcDbPolyline
 90
        2
 70
     0
 43
0.5
 10
74.94709875307899
 20
120.1846039540754
 10
74.94709875307899
 20
120.0469490390684
  0
LWPOLYLINE
  5
61A
330
1F
100
AcDbEntity
  8
Sichtbare_Kanten_TC_020513_DIN_
  6
Continuous
 62
     7
100
AcDbPolyline
 90
        2
 70
     0
 43
0.5
 10
74.91095809144446
 20
120.1846039540754
 10
74.94709875307899
 20
120.1846039540754
  0
LWPOLYLINE
  5
61B
330
1F
100
AcDbEntity
  8
Sichtbare_Kanten_TC_020513_DIN_
  6
Continuous
 62
     7
100
AcDbPolyline
 90
        2
 70
     0
 43
0.5
 10
63.95895299135941
 20
133.2281818254494
 10
64.08605334668488
 20
131.7754181163794
  0
LWPOLYLINE
  5
61C
330
1F
100
AcDbEntity
  8
Sichtbare_Kanten_TC_020513_DIN_
  6
Continuous
 62
     7
100
AcDbPolyline
 90
        2
 70
     0
 43
0.5
 10
53.65728992527158
 20
141.5767537171684
 10
63.77104681450606
 20
133.5767537171684
  0
LWPOLYLINE
  5
61D
330
1F
100
AcDbEntity
  8
Sichtbare_Kanten_TC_020513_DIN_
  6
Continuous
 62
     7
100
AcDbPolyline
 90
        2
 70
     0
 43
0.5
 10
50.13139827926466
 20
137.9252069446854
 10
52.95494898998607
 20
141.4947951262684
  0
LWPOLYLINE
  5
61E
330
1F
100
AcDbEntity
  8
Sichtbare_Kanten_TC_020513_DIN_
  6
Continuous
 62
     7
100
AcDbPolyline
 90
        2
 70
     0
 43
0.5
 10
47.98046145048818
 20
137.5455892890705
 10
49.34709875307897
 20
137.5455892890705
  0
LWPOLYLINE
  5
61F
330
1F
100
AcDbEntity
  8
Sichtbare_Kanten_TC_020513_DIN_
  6
Continuous
 62
     7
100
AcDbPolyline
 90
        2
 70
     0
 43
0.5
 10
77.60738043390711
 20
155.1846039540754
 10
69.60738043390711
 20
155.1846039540754
  0
LWPOLYLINE
  5
620
330
1F
100
AcDbEntity
  8
Sichtbare_Kanten_TC_020513_DIN_
  6
Continuous
 62
     7
100
AcDbPolyline
 90
        2
 70
     0
 43
0.5
 10
68.0600967974093
 20
141.8578142210905
 10
69.12574180590298
 20
144.7434963572034
  0
LWPOLYLINE
  5
621
330
1F
100
AcDbEntity
  8
Sichtbare_Kanten_TC_020513_DIN_
  6
Continuous
 62
     7
100
AcDbPolyline
 90
        2
 70
     0
 43
0.5
 10
70.34709875307897
 20
138.1846039540754
 10
68.11822081674268
 20
141.3997384847745
  0
LWPOLYLINE
  5
622
330
1F
100
AcDbEntity
  8
Sichtbare_Kanten_TC_020513_DIN_
  6
Continuous
 62
     7
100
AcDbPolyline
 90
        2
 70
     0
 43
0.5
 10
70.34709875307897
 20
136.5091592744124
 10
70.34709875307897
 20
138.1846039540754
  0
LWPOLYLINE
  5
623
330
1F
100
AcDbEntity
  8
Sichtbare_Kanten_TC_020513_DIN_
  6
Continuous
 62
     7
100
AcDbPolyline
 90
        2
 70
     0
 43
0.5
 10
77.84709875307897
 20
120.0469490390684
 10
77.84709875307897
 20
120.0859917729414
  0
LWPOLYLINE
  5
624
330
1F
100
AcDbEntity
  8
Sichtbare_Kanten_TC_020513_DIN_
  6
Continuous
 62
     7
100
AcDbPolyline
 90
        2
 70
     0
 43
0.5
 10
51.32165322664997
 20
150.0280652228655
 10
47.98046145048818
 20
147.9808455382674
  0
LWPOLYLINE
  5
625
330
1F
100
AcDbEntity
  8
Sichtbare_Kanten_TC_020513_DIN_
  6
Continuous
 62
     7
100
AcDbPolyline
 90
        2
 70
     0
 43
0.5
 10
38.54709875307896
 20
117.9679666514854
 10
38.54709875307896
 20
119.3679666514854
  0
LWPOLYLINE
  5
626
330
1F
100
AcDbEntity
  8
Sichtbare_Kanten_TC_020513_DIN_
  6
Continuous
 62
     7
100
AcDbPolyline
 90
        2
 70
     0
 43
0.5
 10
42.04709875307896
 20
120.7679666514854
 10
42.04709875307896
 20
123.1846039540754
  0
LWPOLYLINE
  5
627
330
1F
100
AcDbEntity
  8
Sichtbare_Kanten_TC_020513_DIN_
  6
Continuous
 62
     7
100
AcDbPolyline
 90
        2
 70
     0
 43
0.5
 10
50.04709875307896
 20
131.1846039540754
 10
63.34709875307897
 20
131.1846039540754
  0
LWPOLYLINE
  5
628
330
1F
100
AcDbEntity
  8
Sichtbare_Kanten_TC_020513_DIN_
  6
Continuous
 62
     7
100
AcDbPolyline
 90
        2
 70
     0
 43
0.5
 10
80.34709875307897
 20
130.1846039540754
 10
80.34709875307897
 20
116.6846039540754
  0
LWPOLYLINE
  5
629
330
1F
100
AcDbEntity
  8
Sichtbare_Kanten_TC_020513_DIN_
  6
Continuous
 62
     7
100
AcDbPolyline
 90
        2
 70
     0
 43
0.5
 10
61.34709875307897
 20
124.1846039540754
 10
50.04709875307896
 20
124.1846039540754
  0
LWPOLYLINE
  5
62A
330
1F
100
AcDbEntity
  8
Sichtbare_Kanten_TC_020513_DIN_
  6
Continuous
 62
     7
100
AcDbPolyline
 90
        2
 70
     0
 43
0.5
 10
49.04709875307896
 20
123.1846039540754
 10
49.04709875307896
 20
120.7679666514854
  0
LWPOLYLINE
  5
62B
330
1F
100
AcDbEntity
  8
Sichtbare_Kanten_TC_020513_DIN_
  6
Continuous
 62
     7
100
AcDbPolyline
 90
        2
 70
     0
 43
0.5
 10
41.6582098641901
 20
119.3679666514854
 10
42.04709875307896
 20
119.3679666514854
  0
LWPOLYLINE
  5
62C
330
1F
100
AcDbEntity
  8
Sichtbare_Kanten_TC_020513_DIN_
  6
Continuous
 62
     7
100
AcDbPolyline
 90
        2
 70
     0
 43
0.5
 10
41.6582098641901
 20
119.3679666514854
 10
38.54709875307896
 20
119.3679666514854
  0
LWPOLYLINE
  5
62D
330
1F
100
AcDbEntity
  8
Sichtbare_Kanten_TC_020513_DIN_
  6
Continuous
 62
     7
100
AcDbPolyline
 90
        2
 70
     0
 43
0.5
 10
49.04709875307896
 20
119.3679666514854
 10
49.08475366808648
 20
119.3679666514854
  0
LWPOLYLINE
  5
62E
330
1F
100
AcDbEntity
  8
Sichtbare_Kanten_TC_020513_DIN_
  6
Continuous
 62
     7
100
AcDbPolyline
 90
        2
 70
     0
 43
0.5
 10
49.1847536680865
 20
117.8679666514854
 10
49.1847536680865
 20
117.0303117364774
  0
LWPOLYLINE
  5
62F
330
1F
100
AcDbEntity
  8
Sichtbare_Kanten_TC_020513_DIN_
  6
Continuous
 62
     7
100
AcDbPolyline
 90
        2
 70
     0
 43
0.5
 10
50.58475366808648
 20
117.8679666514854
 10
50.58475366808648
 20
117.0303117364774
  0
LWPOLYLINE
  5
630
330
1F
100
AcDbEntity
  8
Sichtbare_Kanten_TC_020513_DIN_
  6
Continuous
 62
     7
100
AcDbPolyline
 90
        2
 70
     0
 43
0.5
 10
49.1847536680865
 20
117.0303117364774
 10
50.58475366808648
 20
117.0303117364774
  0
LWPOLYLINE
  5
631
330
1F
100
AcDbEntity
  8
Sichtbare_Kanten_TC_020513_DIN_
  6
Continuous
 62
     7
100
AcDbPolyline
 90
        2
 70
     0
 43
0.5
 10
41.6582098641901
 20
117.9679666514854
 10
38.54709875307896
 20
117.9679666514854
  0
LWPOLYLINE
  5
632
330
1F
100
AcDbEntity
  8
Sichtbare_Kanten_TC_020513_DIN_
  6
Continuous
 62
     7
100
AcDbPolyline
 90
        2
 70
     0
 43
0.5
 10
41.6582098641901
 20
117.9679666514854
 10
42.04709875307896
 20
117.9679666514854
  0
LWPOLYLINE
  5
633
330
1F
100
AcDbEntity
  8
Sichtbare_Kanten_TC_020513_DIN_
  6
Continuous
 62
     7
100
AcDbPolyline
 90
        2
 70
     0
 43
0.5
 10
49.04709875307896
 20
117.9679666514854
 10
49.08475366808648
 20
117.9679666514854
  0
LWPOLYLINE
  5
634
330
1F
100
AcDbEntity
  8
Sichtbare_Kanten_TC_020513_DIN_
  6
Continuous
 62
     7
100
AcDbPolyline
 90
        2
 70
     0
 43
0.5
 10
131.647098753079
 20
120.7679666514854
 10
131.647098753079
 20
117.9679666514854
  0
LWPOLYLINE
  5
635
330
1F
100
AcDbEntity
  8
Sichtbare_Kanten_TC_020513_DIN_
  6
Continuous
 62
     7
100
AcDbPolyline
 90
        2
 70
     0
 43
0.5
 10
124.647098753079
 20
117.9679666514854
 10
124.647098753079
 20
120.7679666514854
  0
LWPOLYLINE
  5
636
330
1F
100
AcDbEntity
  8
Sichtbare_Kanten_TC_020513_DIN_
  6
Continuous
 62
     7
100
AcDbPolyline
 90
        2
 70
     0
 43
0.5
 10
131.647098753079
 20
117.9679666514854
 10
124.647098753079
 20
117.9679666514854
  0
LWPOLYLINE
  5
637
330
1F
100
AcDbEntity
  8
Sichtbare_Kanten_TC_020513_DIN_
  6
Continuous
 62
     7
100
AcDbPolyline
 90
        2
 70
     0
 43
0.5
 10
124.509443838071
 20
117.8679666514854
 10
124.509443838071
 20
117.0303117364774
  0
LWPOLYLINE
  5
638
330
1F
100
AcDbEntity
  8
Sichtbare_Kanten_TC_020513_DIN_
  6
Continuous
 62
     7
100
AcDbPolyline
 90
        2
 70
     0
 43
0.5
 10
123.109443838071
 20
117.8679666514854
 10
123.109443838071
 20
117.0303117364774
  0
LWPOLYLINE
  5
639
330
1F
100
AcDbEntity
  8
Sichtbare_Kanten_TC_020513_DIN_
  6
Continuous
 62
     7
100
AcDbPolyline
 90
        2
 70
     0
 43
0.5
 10
124.509443838071
 20
117.0303117364774
 10
123.109443838071
 20
117.0303117364774
  0
LWPOLYLINE
  5
63A
330
1F
100
AcDbEntity
  8
Sichtbare_Kanten_TC_020513_DIN_
  6
Continuous
 62
     7
100
AcDbPolyline
 90
        2
 70
     0
 43
0.5
 10
124.647098753079
 20
123.1846039540754
 10
124.647098753079
 20
120.7679666514854
  0
LWPOLYLINE
  5
63B
330
1F
100
AcDbEntity
  8
Sichtbare_Kanten_TC_020513_DIN_
  6
Continuous
 62
     7
100
AcDbPolyline
 90
        2
 70
     0
 43
0.5
 10
112.347098753079
 20
124.1846039540754
 10
123.647098753079
 20
124.1846039540754
  0
LWPOLYLINE
  5
63C
330
1F
100
AcDbEntity
  8
Sichtbare_Kanten_TC_020513_DIN_
  6
Continuous
 62
     7
100
AcDbPolyline
 90
        2
 70
     0
 43
0.5
 10
93.34709875307897
 20
130.1846039540754
 10
93.34709875307897
 20
116.6846039540754
  0
LWPOLYLINE
  5
63D
330
1F
100
AcDbEntity
  8
Sichtbare_Kanten_TC_020513_DIN_
  6
Continuous
 62
     7
100
AcDbPolyline
 90
        2
 70
     0
 43
0.5
 10
123.647098753079
 20
131.1846039540754
 10
110.347098753079
 20
131.1846039540754
  0
LWPOLYLINE
  5
63E
330
1F
100
AcDbEntity
  8
Sichtbare_Kanten_TC_020513_DIN_
  6
Continuous
 62
     7
100
AcDbPolyline
 90
        2
 70
     0
 43
0.5
 10
131.647098753079
 20
120.7679666514854
 10
131.647098753079
 20
123.1846039540754
  0
LWPOLYLINE
  5
63F
330
1F
100
AcDbEntity
  8
Sichtbare_Kanten_TC_020513_DIN_
  6
Continuous
 62
     7
100
AcDbPolyline
 90
        2
 70
     0
 43
0.5
 10
132.035987641968
 20
119.3679666514854
 10
135.147098753079
 20
119.3679666514854
  0
LWPOLYLINE
  5
640
330
1F
100
AcDbEntity
  8
Sichtbare_Kanten_TC_020513_DIN_
  6
Continuous
 62
     7
100
AcDbPolyline
 90
        2
 70
     0
 43
0.5
 10
132.035987641968
 20
119.3679666514854
 10
131.647098753079
 20
119.3679666514854
  0
LWPOLYLINE
  5
641
330
1F
100
AcDbEntity
  8
Sichtbare_Kanten_TC_020513_DIN_
  6
Continuous
 62
     7
100
AcDbPolyline
 90
        2
 70
     0
 43
0.5
 10
124.647098753079
 20
119.3679666514854
 10
124.609443838071
 20
119.3679666514854
  0
LWPOLYLINE
  5
642
330
1F
100
AcDbEntity
  8
Sichtbare_Kanten_TC_020513_DIN_
  6
Continuous
 62
     7
100
AcDbPolyline
 90
        2
 70
     0
 43
0.5
 10
135.147098753079
 20
117.9679666514854
 10
135.147098753079
 20
119.3679666514854
  0
LWPOLYLINE
  5
643
330
1F
100
AcDbEntity
  8
Sichtbare_Kanten_TC_020513_DIN_
  6
Continuous
 62
     7
100
AcDbPolyline
 90
        2
 70
     0
 43
0.5
 10
124.647098753079
 20
117.9679666514854
 10
124.609443838071
 20
117.9679666514854
  0
LWPOLYLINE
  5
644
330
1F
100
AcDbEntity
  8
Sichtbare_Kanten_TC_020513_DIN_
  6
Continuous
 62
     7
100
AcDbPolyline
 90
        2
 70
     0
 43
0.5
 10
132.035987641968
 20
117.9679666514854
 10
131.647098753079
 20
117.9679666514854
  0
LWPOLYLINE
  5
645
330
1F
100
AcDbEntity
  8
Sichtbare_Kanten_TC_020513_DIN_
  6
Continuous
 62
     7
100
AcDbPolyline
 90
        2
 70
     0
 43
0.5
 10
132.035987641968
 20
117.9679666514854
 10
135.147098753079
 20
117.9679666514854
  0
LWPOLYLINE
  5
646
330
1F
100
AcDbEntity
  8
Sichtbare_Kanten_TC_020513_DIN_
  6
Continuous
 62
     7
100
AcDbPolyline
 90
        2
 70
     0
 43
0.5
 10
121.647098753079
 20
137.1846039540754
 10
115.847098753079
 20
137.1846039540754
  0
LWPOLYLINE
  5
647
330
1F
100
AcDbEntity
  8
Sichtbare_Kanten_TC_020513_DIN_
  6
Continuous
 62
     7
100
AcDbPolyline
 90
        2
 70
     0
 43
0.5
 10
121.647098753079
 20
137.1846039540754
 10
121.647098753079
 20
133.1846039540754
  0
LWPOLYLINE
  5
648
330
1F
100
AcDbEntity
  8
Sichtbare_Kanten_TC_020513_DIN_
  6
Continuous
 62
     7
100
AcDbPolyline
 90
        2
 70
     0
 43
0.5
 10
114.484265715258
 20
137.1846039540754
 10
115.847098753079
 20
137.1846039540754
  0
LWPOLYLINE
  5
649
330
1F
100
AcDbEntity
  8
Sichtbare_Kanten_TC_020513_DIN_
  6
Continuous
 62
     7
100
AcDbPolyline
 90
        2
 70
     0
 43
0.5
 10
70.34709875307897
 20
137.1846039540754
 10
103.347098753079
 20
137.1846039540754
  0
LWPOLYLINE
  5
64A
330
1F
100
AcDbEntity
  8
Sichtbare_Kanten_TC_020513_DIN_
  6
Continuous
 62
     7
100
AcDbPolyline
 90
        2
 70
     0
 43
0.5
 10
57.84709875307897
 20
137.1846039540754
 10
59.20993179090027
 20
137.1846039540754
  0
LWPOLYLINE
  5
64B
330
1F
100
AcDbEntity
  8
Sichtbare_Kanten_TC_020513_DIN_
  6
Continuous
 62
     7
100
AcDbPolyline
 90
        2
 70
     0
 43
0.5
 10
57.84709875307897
 20
137.1846039540754
 10
52.04709875307896
 20
137.1846039540754
  0
LWPOLYLINE
  5
64C
330
1F
100
AcDbEntity
  8
Sichtbare_Kanten_TC_020513_DIN_
  6
Continuous
 62
     7
100
AcDbPolyline
 90
        2
 70
     0
 43
0.5
 10
52.04709875307896
 20
137.1846039540754
 10
52.04709875307896
 20
133.1846039540754
  0
LWPOLYLINE
  5
64D
330
1F
100
AcDbEntity
  8
Sichtbare_Kanten_TC_020513_DIN_
  6
Continuous
 62
     7
100
AcDbPolyline
 90
        2
 70
     0
 43
0.5
 10
133.597098753079
 20
98.71460395407543
 10
121.847098753079
 20
98.71460395407543
  0
LWPOLYLINE
  5
64E
330
1F
100
AcDbEntity
  8
Sichtbare_Kanten_TC_020513_DIN_
  6
Continuous
 62
     7
100
AcDbPolyline
 90
        2
 70
     0
 43
0.5
 10
133.597098753079
 20
83.57460395407583
 10
133.597098753079
 20
70.1654730106078
  0
LWPOLYLINE
  5
64F
330
1F
100
AcDbEntity
  8
Sichtbare_Kanten_TC_020513_DIN_
  6
Continuous
 62
     7
100
AcDbPolyline
 90
        2
 70
     0
 43
0.5
 10
133.597098753079
 20
83.57460395407583
 10
133.597098753079
 20
96.96460395407543
  0
LWPOLYLINE
  5
650
330
1F
100
AcDbEntity
  8
Sichtbare_Kanten_TC_020513_DIN_
  6
Continuous
 62
     7
100
AcDbPolyline
 90
        2
 70
     0
 43
0.5
 10
51.84709875307897
 20
98.71460395407543
 10
40.09709875307897
 20
98.71460395407543
  0
LWPOLYLINE
  5
651
330
1F
100
AcDbEntity
  8
Sichtbare_Kanten_TC_020513_DIN_
  6
Continuous
 62
     7
100
AcDbPolyline
 90
        2
 70
     0
 43
0.5
 10
40.09709875307897
 20
83.57460395407583
 10
40.09709875307897
 20
98.71460395407543
  0
LWPOLYLINE
  5
652
330
1F
100
AcDbEntity
  8
Sichtbare_Kanten_TC_020513_DIN_
  6
Continuous
 62
     7
100
AcDbPolyline
 90
        2
 70
     0
 43
0.5
 10
40.09709875307897
 20
83.57460395407583
 10
40.09709875307897
 20
68.18460395407583
  0
LWPOLYLINE
  5
653
330
1F
100
AcDbEntity
  8
Sichtbare_Kanten_TC_020513_DIN_
  6
Continuous
 62
     7
100
AcDbPolyline
 90
        2
 70
     0
 43
0.5
 10
115.847098753079
 20
133.1846039540754
 10
121.847098753079
 20
133.1846039540754
  0
LWPOLYLINE
  5
654
330
1F
100
AcDbEntity
  8
Sichtbare_Kanten_TC_020513_DIN_
  6
Continuous
 62
     7
100
AcDbPolyline
 90
        2
 70
     0
 43
0.5
 10
51.84709875307897
 20
133.1846039540754
 10
57.84709875307897
 20
133.1846039540754
  0
LWPOLYLINE
  5
655
330
1F
100
AcDbEntity
  8
Sichtbare_Kanten_TC_020513_DIN_
  6
Continuous
 62
     7
100
AcDbPolyline
 90
        2
 70
     0
 43
0.5
 10
51.84709875307897
 20
131.1846039540754
 10
51.84709875307897
 20
133.1846039540754
  0
LWPOLYLINE
  5
656
330
1F
100
AcDbEntity
  8
Sichtbare_Kanten_TC_020513_DIN_
  6
Continuous
 62
     7
100
AcDbPolyline
 90
        2
 70
     0
 43
0.5
 10
51.84709875307897
 20
68.18460395407583
 10
51.84709875307897
 20
124.1846039540754
  0
LWPOLYLINE
  5
657
330
1F
100
AcDbEntity
  8
Sichtbare_Kanten_TC_020513_DIN_
  6
Continuous
 62
     7
100
AcDbPolyline
 90
        2
 70
     0
 43
0.5
 10
121.847098753079
 20
131.1846039540754
 10
121.847098753079
 20
133.1846039540754
  0
LWPOLYLINE
  5
658
330
1F
100
AcDbEntity
  8
Sichtbare_Kanten_TC_020513_DIN_
  6
Continuous
 62
     7
100
AcDbPolyline
 90
        2
 70
     0
 43
0.5
 10
121.847098753079
 20
68.18460395407583
 10
121.847098753079
 20
124.1846039540754
  0
LWPOLYLINE
  5
659
330
1F
100
AcDbEntity
  8
Sichtbare_Kanten_TC_020513_DIN_
  6
Continuous
 62
     7
100
AcDbPolyline
 90
        2
 70
     0
 43
0.5
 10
63.96276556108518
 20
133.1846039540754
 10
57.84709875307897
 20
133.1846039540754
  0
LWPOLYLINE
  5
65A
330
1F
100
AcDbEntity
  8
Sichtbare_Kanten_TC_020513_DIN_
  6
Continuous
 62
     7
100
AcDbPolyline
 90
        2
 70
     0
 43
0.5
 10
94.02254343274217
 20
133.1846039540754
 10
79.67165407341577
 20
133.1846039540754
  0
LWPOLYLINE
  5
65B
330
1F
100
AcDbEntity
  8
Sichtbare_Kanten_TC_020513_DIN_
  6
Continuous
 62
     7
100
AcDbPolyline
 90
        2
 70
     0
 43
0.5
 10
115.847098753079
 20
133.1846039540754
 10
109.731431945073
 20
133.1846039540754
  0
LWPOLYLINE
  5
65C
330
1F
100
AcDbEntity
  8
Sichtbare_Kanten_TC_020513_DIN_
  6
Continuous
 62
     7
100
AcDbPolyline
 90
        2
 70
     0
 43
0.5
 10
40.09709875307897
 20
64.18460395407583
 10
40.09709875307897
 20
68.18460395407583
  0
LWPOLYLINE
  5
65D
330
1F
100
AcDbEntity
  8
Sichtbare_Kanten_TC_020513_DIN_
  6
Continuous
 62
     7
100
AcDbPolyline
 90
        2
 70
     0
 43
0.5
 10
49.09709875307897
 20
64.18460395407583
 10
49.09709875307897
 20
68.18460395407583
  0
LWPOLYLINE
  5
65E
330
1F
100
AcDbEntity
  8
Sichtbare_Kanten_TC_020513_DIN_
  6
Continuous
 62
     7
100
AcDbPolyline
 90
        2
 70
     0
 43
0.5
 10
124.597098753079
 20
64.18460395407583
 10
124.597098753079
 20
68.18460395407583
  0
LWPOLYLINE
  5
65F
330
1F
100
AcDbEntity
  8
Sichtbare_Kanten_TC_020513_DIN_
  6
Continuous
 62
     7
100
AcDbPolyline
 90
        2
 70
     0
 43
0.5
 10
133.597098753079
 20
68.18460395407583
 10
124.597098753079
 20
68.18460395407583
  0
LWPOLYLINE
  5
660
330
1F
100
AcDbEntity
  8
Sichtbare_Kanten_TC_020513_DIN_
  6
Continuous
 62
     7
100
AcDbPolyline
 90
        2
 70
     0
 43
0.5
 10
124.597098753079
 20
68.18460395407583
 10
114.597098753079
 20
68.18460395407583
  0
LWPOLYLINE
  5
661
330
1F
100
AcDbEntity
  8
Sichtbare_Kanten_TC_020513_DIN_
  6
Continuous
 62
     7
100
AcDbPolyline
 90
        2
 70
     0
 43
0.5
 10
133.597098753079
 20
64.18460395407583
 10
133.597098753079
 20
68.18460395407583
  0
LWPOLYLINE
  5
662
330
1F
100
AcDbEntity
  8
Sichtbare_Kanten_TC_020513_DIN_
  6
Continuous
 62
     7
100
AcDbPolyline
 90
        2
 70
     0
 43
0.5
 10
59.09709875307897
 20
68.18460395407583
 10
49.09709875307897
 20
68.18460395407583
  0
LWPOLYLINE
  5
663
330
1F
100
AcDbEntity
  8
Sichtbare_Kanten_TC_020513_DIN_
  6
Continuous
 62
     7
100
AcDbPolyline
 90
        2
 70
     0
 43
0.5
 10
49.09709875307897
 20
68.18460395407583
 10
40.09709875307897
 20
68.18460395407583
  0
LWPOLYLINE
  5
664
330
1F
100
AcDbEntity
  8
Sichtbare_Kanten_TC_020513_DIN_
  6
Continuous
 62
     7
100
AcDbPolyline
 90
        2
 70
     0
 43
0.5
 10
49.09709875307897
 20
64.18460395407583
 10
40.09709875307897
 20
64.18460395407583
  0
LWPOLYLINE
  5
665
330
1F
100
AcDbEntity
  8
Sichtbare_Kanten_TC_020513_DIN_
  6
Continuous
 62
     7
100
AcDbPolyline
 90
        2
 70
     0
 43
0.5
 10
59.09709875307897
 20
64.18460395407583
 10
49.09709875307897
 20
64.18460395407583
  0
LWPOLYLINE
  5
666
330
1F
100
AcDbEntity
  8
Sichtbare_Kanten_TC_020513_DIN_
  6
Continuous
 62
     7
100
AcDbPolyline
 90
        2
 70
     0
 43
0.5
 10
124.597098753079
 20
64.18460395407583
 10
114.597098753079
 20
64.18460395407583
  0
LWPOLYLINE
  5
667
330
1F
100
AcDbEntity
  8
Sichtbare_Kanten_TC_020513_DIN_
  6
Continuous
 62
     7
100
AcDbPolyline
 90
        2
 70
     0
 43
0.5
 10
133.597098753079
 20
64.18460395407583
 10
124.597098753079
 20
64.18460395407583
  0
LWPOLYLINE
  5
668
330
1F
100
AcDbEntity
  8
Sichtbare_Kanten_TC_020513_DIN_
  6
Continuous
 62
     7
100
AcDbPolyline
 90
        2
 70
     0
 43
0.5
 10
114.597098753079
 20
64.18460395407583
 10
114.597098753079
 20
68.18460395407583
  0
LWPOLYLINE
  5
669
330
1F
100
AcDbEntity
  8
Sichtbare_Kanten_TC_020513_DIN_
  6
Continuous
 62
     7
100
AcDbPolyline
 90
        2
 70
     0
 43
0.5
 10
114.597098753079
 20
64.18460395407583
 10
59.09709875307897
 20
64.18460395407583
  0
LWPOLYLINE
  5
66A
330
1F
100
AcDbEntity
  8
Sichtbare_Kanten_TC_020513_DIN_
  6
Continuous
 62
     7
100
AcDbPolyline
 90
        2
 70
     0
 43
0.5
 10
59.09709875307897
 20
64.18460395407583
 10
59.09709875307897
 20
68.18460395407583
  0
LWPOLYLINE
  5
66B
330
1F
100
AcDbEntity
  8
Sichtbare_Kanten_TC_020513_DIN_
  6
Continuous
 62
     7
100
AcDbPolyline
 90
        2
 70
     0
 43
0.5
 10
85.59709875307897
 20
96.19460395407543
 10
85.59709875307897
 20
99.31760400960742
  0
LWPOLYLINE
  5
66C
330
1F
100
AcDbEntity
  8
Sichtbare_Kanten_TC_020513_DIN_
  6
Continuous
 62
     7
100
AcDbPolyline
 90
        2
 70
     0
 43
0.5
 10
86.0474187384541
 20
99.46717641167143
 10
86.84709875307897
 20
98.39617743977843
  0
LWPOLYLINE
  5
66D
330
1F
100
AcDbEntity
  8
Sichtbare_Kanten_TC_020513_DIN_
  6
Continuous
 62
     7
100
AcDbPolyline
 90
        2
 70
     0
 43
0.5
 10
86.84709875307897
 20
98.39617743977843
 10
87.64677876770378
 20
99.46717641167143
  0
LWPOLYLINE
  5
66E
330
1F
100
AcDbEntity
  8
Sichtbare_Kanten_TC_020513_DIN_
  6
Continuous
 62
     7
100
AcDbPolyline
 90
        2
 70
     0
 43
0.5
 10
88.09709875307897
 20
99.31760400960742
 10
88.09709875307897
 20
95.05160389854542
  0
LWPOLYLINE
  5
66F
330
1F
100
AcDbEntity
  8
Sichtbare_Kanten_TC_020513_DIN_
  6
Continuous
 62
     7
100
AcDbPolyline
 90
        2
 70
     0
 43
0.5
 10
87.59709875307897
 20
95.05160389854542
 10
87.59709875307897
 20
98.56492507425543
  0
LWPOLYLINE
  5
670
330
1F
100
AcDbEntity
  8
Sichtbare_Kanten_TC_020513_DIN_
  6
Continuous
 62
     7
100
AcDbPolyline
 90
        2
 70
     0
 43
0.5
 10
87.59709875307897
 20
98.56492507425543
 10
86.84709875307897
 20
97.56046177114743
  0
LWPOLYLINE
  5
671
330
1F
100
AcDbEntity
  8
Sichtbare_Kanten_TC_020513_DIN_
  6
Continuous
 62
     7
100
AcDbPolyline
 90
        2
 70
     0
 43
0.5
 10
86.84709875307897
 20
97.56046177114743
 10
86.09709875307897
 20
98.56492507425543
  0
LWPOLYLINE
  5
672
330
1F
100
AcDbEntity
  8
Sichtbare_Kanten_TC_020513_DIN_
  6
Continuous
 62
     7
100
AcDbPolyline
 90
        2
 70
     0
 43
0.5
 10
86.09709875307897
 20
98.56492507425543
 10
86.09709875307897
 20
96.19460395407543
  0
LWPOLYLINE
  5
673
330
1F
100
AcDbEntity
  8
Sichtbare_Kanten_TC_020513_DIN_
  6
Continuous
 62
     7
100
AcDbPolyline
 90
        2
 70
     0
 43
0.5
 10
84.59709875307897
 20
95.62827056521243
 10
84.59709875307897
 20
98.74093734294043
  0
LWPOLYLINE
  5
674
330
1F
100
AcDbEntity
  8
Sichtbare_Kanten_TC_020513_DIN_
  6
Continuous
 62
     7
100
AcDbPolyline
 90
        2
 70
     0
 43
0.5
 10
85.09709875307897
 20
98.74093734294043
 10
85.09709875307897
 20
95.77269362077743
  0
LWPOLYLINE
  5
675
330
1F
100
AcDbEntity
  8
Sichtbare_Kanten_TC_020513_DIN_
  6
Continuous
 62
     7
100
AcDbPolyline
 90
        2
 70
     0
 43
0.5
 10
85.09709875307897
 20
95.77269362077743
 10
86.97198770057139
 20
94.69150766105642
  0
LWPOLYLINE
  5
676
330
1F
100
AcDbEntity
  8
Sichtbare_Kanten_TC_020513_DIN_
  6
Continuous
 62
     7
100
AcDbPolyline
 90
        2
 70
     0
 43
0.5
 10
86.72220980558649
 20
94.25836680270143
 10
84.72220980558649
 20
95.41170013603443
  0
LWPOLYLINE
  5
677
330
1F
100
AcDbEntity
  8
Sichtbare_Kanten_TC_020513_DIN_
  6
Continuous
 62
     7
100
AcDbPolyline
 90
        2
 70
     0
 43
0.5
 10
80.34665414805215
 20
97.18460395407642
 10
86.84709875307897
 20
100.9331936763084
  0
LWPOLYLINE
  5
678
330
1F
100
AcDbEntity
  8
Sichtbare_Kanten_TC_020513_DIN_
  6
Continuous
 62
     7
100
AcDbPolyline
 90
        2
 70
     0
 43
0.5
 10
86.84709875307897
 20
100.9331936763084
 10
93.34754335810578
 20
97.18460395407642
  0
LWPOLYLINE
  5
679
330
1F
100
AcDbEntity
  8
Sichtbare_Kanten_TC_020513_DIN_
  6
Continuous
 62
     7
100
AcDbPolyline
 90
        2
 70
     0
 43
0.5
 10
93.34754335810578
 20
97.18460395407642
 10
86.84709875307897
 20
93.43601423184442
  0
LWPOLYLINE
  5
67A
330
1F
100
AcDbEntity
  8
Sichtbare_Kanten_TC_020513_DIN_
  6
Continuous
 62
     7
100
AcDbPolyline
 90
        2
 70
     0
 43
0.5
 10
86.84709875307897
 20
93.43601423184442
 10
80.34665414805215
 20
97.18460395407642
  0
LWPOLYLINE
  5
67B
330
1F
100
AcDbEntity
  8
Sichtbare_Kanten_TC_020513_DIN_
  6
Continuous
 62
     7
100
AcDbPolyline
 90
        2
 70
     0
 43
0.5
 10
86.84709875307897
 20
100.6446039540764
 10
80.84709875307897
 20
97.18460395407543
  0
LWPOLYLINE
  5
67C
330
1F
100
AcDbEntity
  8
Sichtbare_Kanten_TC_020513_DIN_
  6
Continuous
 62
     7
100
AcDbPolyline
 90
        2
 70
     0
 43
0.5
 10
92.84709875307897
 20
97.18460395407543
 10
86.84709875307897
 20
100.6446039540764
  0
LWPOLYLINE
  5
67D
330
1F
100
AcDbEntity
  8
Sichtbare_Kanten_TC_020513_DIN_
  6
Continuous
 62
     7
100
AcDbPolyline
 90
        2
 70
     0
 43
0.5
 10
86.84709875307897
 20
93.72460395407643
 10
92.84709875307897
 20
97.18460395407543
  0
LWPOLYLINE
  5
67E
330
1F
100
AcDbEntity
  8
Sichtbare_Kanten_TC_020513_DIN_
  6
Continuous
 62
     7
100
AcDbPolyline
 90
        2
 70
     0
 43
0.5
 10
80.84709875307897
 20
97.18460395407543
 10
86.84709875307897
 20
93.72460395407643
  0
LWPOLYLINE
  5
67F
330
1F
100
AcDbEntity
  8
Sichtbare_Kanten_TC_020513_DIN_
  6
Continuous
 62
     7
100
AcDbPolyline
 90
        2
 70
     0
 43
0.5
 10
83.59709875307897
 20
96.19460395407543
 10
83.59709875307897
 20
98.17460395407542
  0
LWPOLYLINE
  5
680
330
1F
100
AcDbEntity
  8
Sichtbare_Kanten_TC_020513_DIN_
  6
Continuous
 62
     7
100
AcDbPolyline
 90
        2
 70
     0
 43
0.5
 10
84.09709875307897
 20
98.17460395407542
 10
84.09709875307897
 20
96.19460395407543
  0
LWPOLYLINE
  5
681
330
1F
100
AcDbEntity
  8
Sichtbare_Kanten_TC_020513_DIN_
  6
Continuous
 62
     7
100
AcDbPolyline
 90
        2
 70
     0
 43
0.5
 10
88.9719877005715
 20
98.95750777211843
 10
89.9719877005715
 20
98.38084110545142
  0
LWPOLYLINE
  5
682
330
1F
100
AcDbEntity
  8
Sichtbare_Kanten_TC_020513_DIN_
  6
Continuous
 62
     7
100
AcDbPolyline
 90
        2
 70
     0
 43
0.5
 10
89.72220980558649
 20
97.94770024709642
 10
89.09709875307897
 20
98.30818095404243
  0
LWPOLYLINE
  5
683
330
1F
100
AcDbEntity
  8
Sichtbare_Kanten_TC_020513_DIN_
  6
Continuous
 62
     7
100
AcDbPolyline
 90
        2
 70
     0
 43
0.5
 10
89.09709875307897
 20
98.30818095404243
 10
89.09709875307897
 20
97.43460395407642
  0
LWPOLYLINE
  5
684
330
1F
100
AcDbEntity
  8
Sichtbare_Kanten_TC_020513_DIN_
  6
Continuous
 62
     7
100
AcDbPolyline
 90
        2
 70
     0
 43
0.5
 10
89.09709875307897
 20
97.43460395407642
 10
89.84709875307897
 20
97.43460395407642
  0
LWPOLYLINE
  5
685
330
1F
100
AcDbEntity
  8
Sichtbare_Kanten_TC_020513_DIN_
  6
Continuous
 62
     7
100
AcDbPolyline
 90
        2
 70
     0
 43
0.5
 10
89.84709875307897
 20
96.93460395407642
 10
89.09709875307897
 20
96.93460395407642
  0
LWPOLYLINE
  5
686
330
1F
100
AcDbEntity
  8
Sichtbare_Kanten_TC_020513_DIN_
  6
Continuous
 62
     7
100
AcDbPolyline
 90
        2
 70
     0
 43
0.5
 10
89.09709875307897
 20
96.93460395407642
 10
89.09709875307897
 20
96.06102695411043
  0
LWPOLYLINE
  5
687
330
1F
100
AcDbEntity
  8
Sichtbare_Kanten_TC_020513_DIN_
  6
Continuous
 62
     7
100
AcDbPolyline
 90
        2
 70
     0
 43
0.5
 10
89.09709875307897
 20
96.06102695411043
 10
89.72220980558649
 20
96.42150766105642
  0
LWPOLYLINE
  5
688
330
1F
100
AcDbEntity
  8
Sichtbare_Kanten_TC_020513_DIN_
  6
Continuous
 62
     7
100
AcDbPolyline
 90
        2
 70
     0
 43
0.5
 10
89.97198770057139
 20
95.98836680270043
 10
88.9719877005715
 20
95.41170013603443
  0
LWPOLYLINE
  5
689
330
1F
100
AcDbEntity
  8
Sichtbare_Kanten_TC_020513_DIN_
  6
Continuous
 62
     7
100
AcDbPolyline
 90
        2
 70
     0
 43
0.5
 10
88.59709875307897
 20
95.62827056521243
 10
88.59709875307897
 20
98.74093734294043
  0
LINE
  5
68A
330
1F
100
AcDbEntity
  8
1
  6
Continuous
 62
     2
100
AcDbLine
 10
146.281048724795
 20
119.1846039540754
 30
0.0
 11
146.281048724795
 21
120.1846039540754
 31
0.0
  0
LINE
  5
68B
330
1F
100
AcDbEntity
  8
1
  6
Continuous
 62
     2
100
AcDbLine
 10
27.41314878136291
 20
119.1846039540754
 30
0.0
 11
27.41314878136303
 21
119.6846039540754
 31
0.0
  0
LINE
  5
68C
330
1F
100
AcDbEntity
  8
1
  6
Continuous
 62
     2
100
AcDbLine
 10
133.597098753079
 20
96.96460395407543
 30
0.0
 11
133.997098753079
 21
96.96460395407543
 31
0.0
  0
LWPOLYLINE
  5
68D
330
1F
100
AcDbEntity
  8
Sichtbare_Kanten_TC_020513_DIN_
  6
Continuous
 62
     7
100
AcDbPolyline
 90
        2
 70
     0
 43
0.5
 10
133.597098753079
 20
96.96460395407543
 10
133.597098753079
 20
98.71460395407543
  0
LINE
  5
68E
330
1F
100
AcDbEntity
  8
1
  6
Continuous
 62
     2
100
AcDbLine
 10
133.597098753079
 20
70.1654730106078
 30
0.0
 11
133.997098753079
 21
70.1654730106078
 31
0.0
  0
LWPOLYLINE
  5
68F
330
1F
100
AcDbEntity
  8
Sichtbare_Kanten_TC_020513_DIN_
  6
Continuous
 62
     7
100
AcDbPolyline
 90
        2
 70
     0
 43
0.5
 10
133.597098753079
 20
70.1654730106078
 10
133.597098753079
 20
68.18460395407583
  0
LWPOLYLINE
  5
690
330
1F
100
AcDbEntity
  8
Skizziergeometrie_TC_020513_DIN_
  6
DASHED
 62
     7
100
AcDbPolyline
 90
        2
 70
     0
 43
0.35
 10
146.281048724795
 20
119.1846039540754
 42
0.23377270108532
 10
127.046969375876
 20
158.0748230949284
 42
0.23377270108532
  0
LWPOLYLINE
  5
691
330
1F
100
AcDbEntity
  8
Skizziergeometrie_TC_020513_DIN_
  6
DASHED
 62
     7
100
AcDbPolyline
 90
        2
 70
     0
 43
0.35
 10
27.41314878136291
 20
119.1846039540754
 42
0.06137334297781
 10
28.87665395982066
 20
107.3065430447934
 42
0.06137334297781
  0
LWPOLYLINE
  5
692
330
1F
100
AcDbEntity
  8
Sichtbare_Kanten_TC_020513_DIN_
  6
Continuous
 62
     7
100
AcDbPolyline
 90
        2
 70
     0
 43
0.5
 10
201.370368905802
 20
119.3679666514854
 42
0.11797797415311
 10
201.532840245417
 20
120.0469490390684
 42
0.11797797415311
  0
LWPOLYLINE
  5
693
330
1F
100
AcDbEntity
  8
Sichtbare_Kanten_TC_020513_DIN_
  6
Continuous
 62
     7
100
AcDbPolyline
 90
        2
 70
     0
 43
0.5
 10
200.032840245417
 20
119.9469490390684
 42
0.4142135623731
 10
200.132840245417
 20
120.0469490390684
 42
0.4142135623731
  0
LWPOLYLINE
  5
694
330
1F
100
AcDbEntity
  8
Sichtbare_Kanten_TC_020513_DIN_
  6
Continuous
 62
     7
100
AcDbPolyline
 90
        2
 70
     0
 43
0.5
 10
246.332840245417
 20
120.0469490390684
 42
0.11797797415311
 10
246.495311585032
 20
119.3679666514854
 42
0.11797797415311
  0
LWPOLYLINE
  5
695
330
1F
100
AcDbEntity
  8
Sichtbare_Kanten_TC_020513_DIN_
  6
Continuous
 62
     7
100
AcDbPolyline
 90
        2
 70
     0
 43
0.5
 10
247.7328402454169
 20
120.0469490390684
 42
0.4142135623731
 10
247.832840245417
 20
119.9469490390684
 42
0.4142135623731
  0
LWPOLYLINE
  5
696
330
1F
100
AcDbEntity
  8
Sichtbare_Kanten_TC_020513_DIN_
  6
Continuous
 62
     7
100
AcDbPolyline
 90
        2
 70
     0
 43
0.5
 10
247.632840245407
 20
119.3679666514854
 42
0.4142135623731
 10
249.032840245407
 20
120.7679666514854
 42
0.4142135623731
  0
LWPOLYLINE
  5
697
330
1F
100
AcDbEntity
  8
Sichtbare_Kanten_TC_020513_DIN_
  6
Continuous
 62
     7
100
AcDbPolyline
 90
        2
 70
     0
 43
0.5
 10
247.632840245407
 20
117.9679666514854
 42
0.4142135623731
 10
250.432840245413
 20
120.7679666514854
 42
0.4142135623731
  0
LWPOLYLINE
  5
698
330
1F
100
AcDbEntity
  8
Sichtbare_Kanten_TC_020513_DIN_
  6
Continuous
 62
     7
100
AcDbPolyline
 90
        2
 70
     0
 43
0.5
 10
207.6409590045709
 20
137.3602940503465
 42
0.33945425886287
 10
207.399477547999
 20
137.5455892890705
 42
0.33945425886287
  0
LWPOLYLINE
  5
699
330
1F
100
AcDbEntity
  8
Sichtbare_Kanten_TC_020513_DIN_
  6
Continuous
 62
     7
100
AcDbPolyline
 90
        2
 70
     0
 43
0.5
 10
203.744247683544
 20
145.9028016793845
 42
0.22169466264305
 10
204.510292126663
 20
145.5455892890705
 42
0.22169466264305
  0
LWPOLYLINE
  5
69A
330
1F
100
AcDbEntity
  8
Sichtbare_Kanten_TC_020513_DIN_
  6
Continuous
 62
     7
100
AcDbPolyline
 90
        2
 70
     0
 43
0.5
 10
207.399477547999
 20
145.5455892890705
 42
0.19329431317681
 10
208.436938518764
 20
145.9622265916615
 42
0.19329431317681
  0
LWPOLYLINE
  5
69B
330
1F
100
AcDbEntity
  8
Sichtbare_Kanten_TC_020513_DIN_
  6
Continuous
 62
     7
100
AcDbPolyline
 90
        2
 70
     0
 43
0.5
 10
240.4662029428169
 20
137.5455892890705
 42
0.33945425886287
 10
240.224721486245
 20
137.3602940503465
 42
0.33945425886287
  0
LWPOLYLINE
  5
69C
330
1F
100
AcDbEntity
  8
Sichtbare_Kanten_TC_020513_DIN_
  6
Continuous
 62
     7
100
AcDbPolyline
 90
        2
 70
     0
 43
0.5
 10
243.355388364153
 20
145.5455892890705
 42
0.22169466264304
 10
244.1214328072719
 20
145.9028016793845
 42
0.22169466264304
  0
LWPOLYLINE
  5
69D
330
1F
100
AcDbEntity
  8
Sichtbare_Kanten_TC_020513_DIN_
  6
Continuous
 62
     7
100
AcDbPolyline
 90
        2
 70
     0
 43
0.5
 10
239.4287419720509
 20
145.9622265916615
 42
0.19329431317694
 10
240.4662029428169
 20
145.5455892890705
 42
0.19329431317694
  0
LWPOLYLINE
  5
69E
330
1F
100
AcDbEntity
  8
Sichtbare_Kanten_TC_020513_DIN_
  6
Continuous
 62
     7
100
AcDbPolyline
 90
        2
 70
     0
 43
0.5
 10
233.7162029428179
 20
117.5303117364774
 42
0.4142135623731
 10
234.2162029428179
 20
117.0303117364774
 42
0.4142135623731
  0
LWPOLYLINE
  5
69F
330
1F
100
AcDbEntity
  8
Sichtbare_Kanten_TC_020513_DIN_
  6
Continuous
 62
     7
100
AcDbPolyline
 90
        2
 70
     0
 43
0.5
 10
213.6494775479999
 20
117.0303117364774
 42
0.4142135623731
 10
214.1494775479999
 20
117.5303117364774
 42
0.4142135623731
  0
LWPOLYLINE
  5
6A0
330
1F
100
AcDbEntity
  8
Sichtbare_Kanten_TC_020513_DIN_
  6
Continuous
 62
     7
100
AcDbPolyline
 90
        2
 70
     0
 43
0.5
 10
198.832840245407
 20
120.7679666514854
 42
0.4142135623731
 10
200.232840245407
 20
119.3679666514854
 42
0.4142135623731
  0
LWPOLYLINE
  5
6A1
330
1F
100
AcDbEntity
  8
Sichtbare_Kanten_TC_020513_DIN_
  6
Continuous
 62
     7
100
AcDbPolyline
 90
        2
 70
     0
 43
0.5
 10
197.4328402454069
 20
120.7679666514854
 42
0.4142135623731
 10
200.232840245407
 20
117.9679666514854
 42
0.4142135623731
  0
LWPOLYLINE
  5
6A2
330
1F
100
AcDbEntity
  8
Sichtbare_Kanten_TC_020513_DIN_
  6
Continuous
 62
     7
100
AcDbPolyline
 90
        2
 70
     0
 43
0.5
 10
195.432840245416
 20
126.1846039540754
 42
1.0
 10
196.832840245416
 20
126.1846039540754
 42
1.0
  0
LWPOLYLINE
  5
6A3
330
1F
100
AcDbEntity
  8
Sichtbare_Kanten_TC_020513_DIN_
  6
Continuous
 62
     7
100
AcDbPolyline
 90
        2
 70
     0
 43
0.5
 10
196.832840245416
 20
134.1846039540754
 42
1.0
 10
195.432840245416
 20
134.1846039540754
 42
1.0
  0
LWPOLYLINE
  5
6A4
330
1F
100
AcDbEntity
  8
Sichtbare_Kanten_TC_020513_DIN_
  6
Continuous
 62
     7
100
AcDbPolyline
 90
        2
 70
     0
 43
0.5
 10
252.432840245416
 20
134.1846039540754
 42
1.0
 10
251.0328402454159
 20
134.1846039540754
 42
1.0
  0
LWPOLYLINE
  5
6A5
330
1F
100
AcDbEntity
  8
Sichtbare_Kanten_TC_020513_DIN_
  6
Continuous
 62
     7
100
AcDbPolyline
 90
        2
 70
     0
 43
0.5
 10
251.0328402454159
 20
126.1846039540754
 42
1.0
 10
252.432840245416
 20
126.1846039540754
 42
1.0
  0
LWPOLYLINE
  5
6A6
330
1F
100
AcDbEntity
  8
Sichtbare_Kanten_TC_020513_DIN_
  6
Continuous
 62
     7
100
AcDbPolyline
 90
        2
 70
     0
 43
0.5
 10
239.072840245406
 20
83.57460395407583
 42
1.0
 10
208.7928402454059
 20
83.57460395407583
 42
1.0
  0
LWPOLYLINE
  5
6A7
330
1F
100
AcDbEntity
  8
Sichtbare_Kanten_TC_020513_DIN_
  6
Continuous
 62
     7
100
AcDbPolyline
 90
        2
 70
     0
 43
0.5
 10
105.575976689415
 20
141.3997384847745
 42
0.24469844322916
 10
105.634100708749
 20
141.8578142210905
 42
0.24469844322916
  0
LWPOLYLINE
  5
6A8
330
1F
100
AcDbEntity
  8
Sichtbare_Kanten_TC_020513_DIN_
  6
Continuous
 62
     7
100
AcDbPolyline
 90
        2
 70
     0
 43
0.5
 10
104.568455700255
 20
144.7434963572034
 42
0.45934868709197
 10
98.168545620837
 20
147.1221039540754
 42
0.45934868709197
  0
LWPOLYLINE
  5
6A9
330
1F
100
AcDbEntity
  8
Sichtbare_Kanten_TC_020513_DIN_
  6
Continuous
 62
     7
100
AcDbPolyline
 90
        2
 70
     0
 43
0.5
 10
96.08681707225077
 20
155.1846039540754
 42
1.29099444873577
 10
98.168545620837
 20
147.1221039540754
 42
1.29099444873577
  0
LWPOLYLINE
  5
6AA
330
1F
100
AcDbEntity
  8
Sichtbare_Kanten_TC_020513_DIN_
  6
Continuous
 62
     7
100
AcDbPolyline
 90
        2
 70
     0
 43
0.5
 10
122.372544279508
 20
150.0280652228655
 42
0.13830205371534
 10
104.086817072251
 20
155.1846039540754
 42
0.13830205371534
  0
LWPOLYLINE
  5
6AB
330
1F
100
AcDbEntity
  8
Sichtbare_Kanten_TC_020513_DIN_
  6
Continuous
 62
     7
100
AcDbPolyline
 90
        2
 70
     0
 43
0.5
 10
123.562799226893
 20
137.9252069446854
 42
0.22928747325022
 10
124.347098753079
 20
137.5455892890705
 42
0.22928747325022
  0
LWPOLYLINE
  5
6AC
330
1F
100
AcDbEntity
  8
Sichtbare_Kanten_TC_020513_DIN_
  6
Continuous
 62
     7
100
AcDbPolyline
 90
        2
 70
     0
 43
0.5
 10
120.739248516172
 20
141.4947951262684
 42
0.41421356237311
 10
120.036907580886
 20
141.5767537171684
 42
0.41421356237311
  0
LWPOLYLINE
  5
6AD
330
1F
100
AcDbEntity
  8
Sichtbare_Kanten_TC_020513_DIN_
  6
Continuous
 62
     7
100
AcDbPolyline
 90
        2
 70
     0
 43
0.5
 10
109.923150691652
 20
133.5767537171684
 42
0.20643458883364
 10
109.735244514799
 20
133.2281818254494
 42
0.20643458883364
  0
LWPOLYLINE
  5
6AE
330
1F
100
AcDbEntity
  8
Sichtbare_Kanten_TC_020513_DIN_
  6
Continuous
 62
     7
100
AcDbPolyline
 90
        2
 70
     0
 43
0.5
 10
49.1847536680865
 20
117.8679666514854
 42
0.4142135623731
 10
49.08475366808648
 20
117.9679666514854
 42
0.4142135623731
  0
LWPOLYLINE
  5
6AF
330
1F
100
AcDbEntity
  8
Sichtbare_Kanten_TC_020513_DIN_
  6
Continuous
 62
     7
100
AcDbPolyline
 90
        2
 70
     0
 43
0.5
 10
50.58475366808648
 20
117.8679666514854
 42
0.4142135623731
 10
49.08475366808648
 20
119.3679666514854
 42
0.4142135623731
  0
LWPOLYLINE
  5
6B0
330
1F
100
AcDbEntity
  8
Sichtbare_Kanten_TC_020513_DIN_
  6
Continuous
 62
     7
100
AcDbPolyline
 90
        2
 70
     0
 43
0.5
 10
63.95895299135941
 20
133.2281818254494
 42
0.20643458883381
 10
63.77104681450606
 20
133.5767537171684
 42
0.20643458883381
  0
LWPOLYLINE
  5
6B1
330
1F
100
AcDbEntity
  8
Sichtbare_Kanten_TC_020513_DIN_
  6
Continuous
 62
     7
100
AcDbPolyline
 90
        2
 70
     0
 43
0.5
 10
53.65728992527158
 20
141.5767537171684
 42
0.41421356237289
 10
52.95494898998607
 20
141.4947951262684
 42
0.41421356237289
  0
LWPOLYLINE
  5
6B2
330
1F
100
AcDbEntity
  8
Sichtbare_Kanten_TC_020513_DIN_
  6
Continuous
 62
     7
100
AcDbPolyline
 90
        2
 70
     0
 43
0.5
 10
49.34709875307897
 20
137.5455892890705
 42
0.22928747325017
 10
50.13139827926466
 20
137.9252069446854
 42
0.22928747325017
  0
LWPOLYLINE
  5
6B3
330
1F
100
AcDbEntity
  8
Sichtbare_Kanten_TC_020513_DIN_
  6
Continuous
 62
     7
100
AcDbPolyline
 90
        2
 70
     0
 43
0.5
 10
69.60738043390711
 20
155.1846039540754
 42
0.13830205371534
 10
51.32165322664997
 20
150.0280652228655
 42
0.13830205371534
  0
LWPOLYLINE
  5
6B4
330
1F
100
AcDbEntity
  8
Sichtbare_Kanten_TC_020513_DIN_
  6
Continuous
 62
     7
100
AcDbPolyline
 90
        2
 70
     0
 43
0.5
 10
75.52565188532071
 20
147.1221039540754
 42
1.29099444873579
 10
77.60738043390711
 20
155.1846039540754
 42
1.29099444873579
  0
LWPOLYLINE
  5
6B5
330
1F
100
AcDbEntity
  8
Sichtbare_Kanten_TC_020513_DIN_
  6
Continuous
 62
     7
100
AcDbPolyline
 90
        2
 70
     0
 43
0.5
 10
75.52565188532071
 20
147.1221039540754
 42
0.45934868709195
 10
69.12574180590298
 20
144.7434963572034
 42
0.45934868709195
  0
LWPOLYLINE
  5
6B6
330
1F
100
AcDbEntity
  8
Sichtbare_Kanten_TC_020513_DIN_
  6
Continuous
 62
     7
100
AcDbPolyline
 90
        2
 70
     0
 43
0.5
 10
68.0600967974093
 20
141.8578142210905
 42
0.24469844322928
 10
68.11822081674268
 20
141.3997384847745
 42
0.24469844322928
  0
LWPOLYLINE
  5
6B7
330
1F
100
AcDbEntity
  8
Sichtbare_Kanten_TC_020513_DIN_
  6
Continuous
 62
     7
100
AcDbPolyline
 90
        2
 70
     0
 43
0.5
 10
50.04709875307896
 20
131.1846039540754
 42
0.4142135623731
 10
42.04709875307896
 20
123.1846039540754
 42
0.4142135623731
  0
LWPOLYLINE
  5
6B8
330
1F
100
AcDbEntity
  8
Sichtbare_Kanten_TC_020513_DIN_
  6
Continuous
 62
     7
100
AcDbPolyline
 90
        2
 70
     0
 43
0.5
 10
63.34709875307897
 20
131.1846039540754
 42
0.22156182771687
 10
63.7299581515407
 20
131.3630162039835
 42
0.22156182771687
  0
LWPOLYLINE
  5
6B9
330
1F
100
AcDbEntity
  8
Sichtbare_Kanten_TC_020513_DIN_
  6
Continuous
 62
     7
100
AcDbPolyline
 90
        2
 70
     0
 43
0.5
 10
70.27935664857739
 20
136.4765796676545
 42
0.10501060713035
 10
63.7299581515407
 20
131.3630162039835
 42
0.10501060713035
  0
LWPOLYLINE
  5
6BA
330
1F
100
AcDbEntity
  8
Sichtbare_Kanten_TC_020513_DIN_
  6
Continuous
 62
     7
100
AcDbPolyline
 90
        2
 70
     0
 43
0.5
 10
80.34709875307897
 20
130.1846039540754
 42
0.55426459289411
 10
70.27935664857739
 20
136.4765796676545
 42
0.55426459289411
  0
LWPOLYLINE
  5
6BB
330
1F
100
AcDbEntity
  8
Sichtbare_Kanten_TC_020513_DIN_
  6
Continuous
 62
     7
100
AcDbPolyline
 90
        2
 70
     0
 43
0.5
 10
80.00415855358636
 20
116.2099122445794
 42
0.32343613623204
 10
80.34709875307897
 20
116.6846039540754
 42
0.32343613623204
  0
LWPOLYLINE
  5
6BC
330
1F
100
AcDbEntity
  8
Sichtbare_Kanten_TC_020513_DIN_
  6
Continuous
 62
     7
100
AcDbPolyline
 90
        2
 70
     0
 43
0.5
 10
61.79694603647528
 20
123.9028639403784
 42
0.37600288377067
 10
80.00415855358636
 20
116.2099122445794
 42
0.37600288377067
  0
LWPOLYLINE
  5
6BD
330
1F
100
AcDbEntity
  8
Sichtbare_Kanten_TC_020513_DIN_
  6
Continuous
 62
     7
100
AcDbPolyline
 90
        2
 70
     0
 43
0.5
 10
61.79694603647528
 20
123.9028639403784
 42
0.28730243078703
 10
61.34709875307897
 20
124.1846039540754
 42
0.28730243078703
  0
LWPOLYLINE
  5
6BE
330
1F
100
AcDbEntity
  8
Sichtbare_Kanten_TC_020513_DIN_
  6
Continuous
 62
     7
100
AcDbPolyline
 90
        2
 70
     0
 43
0.5
 10
50.04709875307896
 20
124.1846039540754
 42
0.4142135623731
 10
49.04709875307896
 20
123.1846039540754
 42
0.4142135623731
  0
LWPOLYLINE
  5
6BF
330
1F
100
AcDbEntity
  8
Sichtbare_Kanten_TC_020513_DIN_
  6
Continuous
 62
     7
100
AcDbPolyline
 90
        2
 70
     0
 43
0.5
 10
124.609443838071
 20
119.3679666514854
 42
0.4142135623731
 10
123.109443838071
 20
117.8679666514854
 42
0.4142135623731
  0
LWPOLYLINE
  5
6C0
330
1F
100
AcDbEntity
  8
Sichtbare_Kanten_TC_020513_DIN_
  6
Continuous
 62
     7
100
AcDbPolyline
 90
        2
 70
     0
 43
0.5
 10
124.609443838071
 20
117.9679666514854
 42
0.4142135623731
 10
124.509443838071
 20
117.8679666514854
 42
0.4142135623731
  0
LWPOLYLINE
  5
6C1
330
1F
100
AcDbEntity
  8
Sichtbare_Kanten_TC_020513_DIN_
  6
Continuous
 62
     7
100
AcDbPolyline
 90
        2
 70
     0
 43
0.5
 10
124.647098753079
 20
123.1846039540754
 42
0.4142135623731
 10
123.647098753079
 20
124.1846039540754
 42
0.4142135623731
  0
LWPOLYLINE
  5
6C2
330
1F
100
AcDbEntity
  8
Sichtbare_Kanten_TC_020513_DIN_
  6
Continuous
 62
     7
100
AcDbPolyline
 90
        2
 70
     0
 43
0.5
 10
112.347098753079
 20
124.1846039540754
 42
0.28730243078698
 10
111.8972514696829
 20
123.9028639403784
 42
0.28730243078698
  0
LWPOLYLINE
  5
6C3
330
1F
100
AcDbEntity
  8
Sichtbare_Kanten_TC_020513_DIN_
  6
Continuous
 62
     7
100
AcDbPolyline
 90
        2
 70
     0
 43
0.5
 10
93.69003895257157
 20
116.2099122445794
 42
0.37600288377068
 10
111.8972514696829
 20
123.9028639403784
 42
0.37600288377068
  0
LWPOLYLINE
  5
6C4
330
1F
100
AcDbEntity
  8
Sichtbare_Kanten_TC_020513_DIN_
  6
Continuous
 62
     7
100
AcDbPolyline
 90
        2
 70
     0
 43
0.5
 10
93.34709875307897
 20
116.6846039540754
 42
0.32343613623204
 10
93.69003895257157
 20
116.2099122445794
 42
0.32343613623204
  0
LWPOLYLINE
  5
6C5
330
1F
100
AcDbEntity
  8
Sichtbare_Kanten_TC_020513_DIN_
  6
Continuous
 62
     7
100
AcDbPolyline
 90
        2
 70
     0
 43
0.5
 10
103.414840857581
 20
136.4765796676545
 42
0.55426459289413
 10
93.34709875307897
 20
130.1846039540754
 42
0.55426459289413
  0
LWPOLYLINE
  5
6C6
330
1F
100
AcDbEntity
  8
Sichtbare_Kanten_TC_020513_DIN_
  6
Continuous
 62
     7
100
AcDbPolyline
 90
        2
 70
     0
 43
0.5
 10
109.964239354617
 20
131.3630162039835
 42
0.10501060713035
 10
103.414840857581
 20
136.4765796676545
 42
0.10501060713035
  0
LWPOLYLINE
  5
6C7
330
1F
100
AcDbEntity
  8
Sichtbare_Kanten_TC_020513_DIN_
  6
Continuous
 62
     7
100
AcDbPolyline
 90
        2
 70
     0
 43
0.5
 10
109.964239354617
 20
131.3630162039835
 42
0.22156182771695
 10
110.347098753079
 20
131.1846039540754
 42
0.22156182771695
  0
LWPOLYLINE
  5
6C8
330
1F
100
AcDbEntity
  8
Sichtbare_Kanten_TC_020513_DIN_
  6
Continuous
 62
     7
100
AcDbPolyline
 90
        2
 70
     0
 43
0.5
 10
131.647098753079
 20
123.1846039540754
 42
0.4142135623731
 10
123.647098753079
 20
131.1846039540754
 42
0.4142135623731
  0
LWPOLYLINE
  5
6C9
330
1F
100
AcDbEntity
  8
Sichtbare_Kanten_TC_020513_DIN_
  6
Continuous
 62
     7
100
AcDbPolyline
 90
        2
 70
     0
 43
0.5
 10
85.59709875307897
 20
96.19460395407543
 42
1.0
 10
86.09709875307897
 20
96.19460395407543
 42
1.0
  0
LWPOLYLINE
  5
6CA
330
1F
100
AcDbEntity
  8
Sichtbare_Kanten_TC_020513_DIN_
  6
Continuous
 62
     7
100
AcDbPolyline
 90
        2
 70
     0
 43
0.5
 10
86.0474187384541
 20
99.46717641167143
 42
0.72157104868725
 10
85.59709875307897
 20
99.31760400960742
 42
0.72157104868725
  0
LWPOLYLINE
  5
6CB
330
1F
100
AcDbEntity
  8
Sichtbare_Kanten_TC_020513_DIN_
  6
Continuous
 62
     7
100
AcDbPolyline
 90
        2
 70
     0
 43
0.5
 10
88.09709875307897
 20
99.31760400960742
 42
0.7215710486873
 10
87.64677876770378
 20
99.46717641167143
 42
0.7215710486873
  0
LWPOLYLINE
  5
6CC
330
1F
100
AcDbEntity
  8
Sichtbare_Kanten_TC_020513_DIN_
  6
Continuous
 62
     7
100
AcDbPolyline
 90
        2
 70
     0
 43
0.5
 10
87.59709875307897
 20
95.05160389854542
 42
1.0
 10
88.09709875307897
 20
95.05160389854542
 42
1.0
  0
LWPOLYLINE
  5
6CD
330
1F
100
AcDbEntity
  8
Sichtbare_Kanten_TC_020513_DIN_
  6
Continuous
 62
     7
100
AcDbPolyline
 90
        2
 70
     0
 43
0.5
 10
85.09709875307897
 20
98.74093734294043
 42
1.0
 10
84.59709875307897
 20
98.74093734294043
 42
1.0
  0
LWPOLYLINE
  5
6CE
330
1F
100
AcDbEntity
  8
Sichtbare_Kanten_TC_020513_DIN_
  6
Continuous
 62
     7
100
AcDbPolyline
 90
        2
 70
     0
 43
0.5
 10
86.72220980558649
 20
94.25836680270143
 42
0.9999999999991
 10
86.97198770057139
 20
94.69150766105642
 42
0.9999999999991
  0
LWPOLYLINE
  5
6CF
330
1F
100
AcDbEntity
  8
Sichtbare_Kanten_TC_020513_DIN_
  6
Continuous
 62
     7
100
AcDbPolyline
 90
        2
 70
     0
 43
0.5
 10
84.59709875307897
 20
95.62827056521243
 42
0.26808661587623
 10
84.72220980558649
 20
95.41170013603443
 42
0.26808661587623
  0
LWPOLYLINE
  5
6D0
330
1F
100
AcDbEntity
  8
Sichtbare_Kanten_TC_020513_DIN_
  6
Continuous
 62
     7
100
AcDbPolyline
 90
        2
 70
     0
 43
0.5
 10
84.09709875307897
 20
98.17460395407542
 42
1.0
 10
83.59709875307897
 20
98.17460395407542
 42
1.0
  0
LWPOLYLINE
  5
6D1
330
1F
100
AcDbEntity
  8
Sichtbare_Kanten_TC_020513_DIN_
  6
Continuous
 62
     7
100
AcDbPolyline
 90
        2
 70
     0
 43
0.5
 10
83.59709875307897
 20
96.19460395407543
 42
1.0
 10
84.09709875307897
 20
96.19460395407543
 42
1.0
  0
LWPOLYLINE
  5
6D2
330
1F
100
AcDbEntity
  8
Sichtbare_Kanten_TC_020513_DIN_
  6
Continuous
 62
     7
100
AcDbPolyline
 90
        2
 70
     0
 43
0.5
 10
88.9719877005715
 20
98.95750777211843
 42
0.57717933062334
 10
88.59709875307897
 20
98.74093734294043
 42
0.57717933062334
  0
LWPOLYLINE
  5
6D3
330
1F
100
AcDbEntity
  8
Sichtbare_Kanten_TC_020513_DIN_
  6
Continuous
 62
     7
100
AcDbPolyline
 90
        2
 70
     0
 43
0.5
 10
89.72220980235926
 20
97.94770024895743
 42
1.00000000744963
 10
89.9719877005715
 20
98.38084110545142
 42
1.00000000744963
  0
LWPOLYLINE
  5
6D4
330
1F
100
AcDbEntity
  8
Sichtbare_Kanten_TC_020513_DIN_
  6
Continuous
 62
     7
100
AcDbPolyline
 90
        2
 70
     0
 43
0.5
 10
89.84709875307897
 20
96.93460395407642
 42
1.0
 10
89.84709875307897
 20
97.43460395407642
 42
1.0
  0
LWPOLYLINE
  5
6D5
330
1F
100
AcDbEntity
  8
Sichtbare_Kanten_TC_020513_DIN_
  6
Continuous
 62
     7
100
AcDbPolyline
 90
        2
 70
     0
 43
0.5
 10
89.97198770057139
 20
95.98836680270043
 42
1.00000000000011
 10
89.72220980558649
 20
96.42150766105642
 42
1.00000000000011
  0
LWPOLYLINE
  5
6D6
330
1F
100
AcDbEntity
  8
Sichtbare_Kanten_TC_020513_DIN_
  6
Continuous
 62
     7
100
AcDbPolyline
 90
        2
 70
     0
 43
0.5
 10
88.59709875307897
 20
95.62827056521243
 42
0.57717933062334
 10
88.9719877005715
 20
95.41170013603443
 42
0.57717933062334
  0
LWPOLYLINE
  5
6D7
330
1F
100
AcDbEntity
  8
Skizziergeometrie_TC_020513_DIN_
  6
DASHED
 62
     7
100
AcDbPolyline
 90
        2
 70
     0
 43
0.35
 10
144.817543546337
 20
107.3065430447934
 42
0.06137334297781
 10
146.281048724795
 20
119.1846039540754
 42
0.06137334297781
  0
LWPOLYLINE
  5
6D8
330
1F
100
AcDbEntity
  8
Skizziergeometrie_TC_020513_DIN_
  6
DASHED
 62
     7
100
AcDbPolyline
 90
        2
 70
     0
 43
0.35
 10
46.64722813028175
 20
158.0748230949284
 42
0.23377270108532
 10
27.41314878136291
 20
119.1846039540754
 42
0.23377270108532
  0
LWPOLYLINE
  5
6D9
330
1F
100
AcDbEntity
  8
Sichtbare_Kanten_TC_020513_DIN_
  6
Continuous
 62
     7
100
AcDbPolyline
 90
        2
 70
     1
 43
0.5
 10
210.542840245414
 20
83.57460395407583
 42
1.0
 10
237.322840245406
 20
83.57460395407583
 42
1.0
  0
LWPOLYLINE
  5
6DA
330
1F
100
AcDbEntity
  8
Sichtbare_Kanten_TC_020513_DIN_
  6
Continuous
 62
     7
100
AcDbPolyline
 90
        2
 70
     1
 43
0.5
 10
213.54284024541
 20
83.57460395407583
 42
1.0
 10
234.32284024541
 20
83.57460395407583
 42
1.0
  0
LWPOLYLINE
  5
6DB
330
1F
100
AcDbEntity
  8
Sichtbare_Kanten_TC_020513_DIN_
  6
Continuous
 62
     7
100
AcDbPolyline
 90
        2
 70
     1
 43
0.5
 10
74.59709875307897
 20
119.1846039540754
 42
1.0
 10
78.09709875307897
 20
119.1846039540754
 42
1.0
  0
LWPOLYLINE
  5
6DC
330
1F
100
AcDbEntity
  8
Sichtbare_Kanten_TC_020513_DIN_
  6
Continuous
 62
     7
100
AcDbPolyline
 90
        2
 70
     1
 43
0.5
 10
95.59709875307897
 20
119.1846039540754
 42
1.0
 10
99.09709875307897
 20
119.1846039540754
 42
1.0
  0
LWPOLYLINE
  5
6DD
330
1F
100
AcDbEntity
  8
Sichtbare_Kanten_TC_020513_DIN_
  6
Continuous
 62
     7
100
AcDbPolyline
 90
        2
 70
     1
 43
0.5
 10
68.64709875307892
 20
130.1846039540754
 42
1.0
 10
78.04709875307901
 20
130.1846039540754
 42
1.0
  0
LWPOLYLINE
  5
6DE
330
1F
100
AcDbEntity
  8
Sichtbare_Kanten_TC_020513_DIN_
  6
Continuous
 62
     7
100
AcDbPolyline
 90
        2
 70
     1
 43
0.5
 10
95.64709875307899
 20
130.1846039540754
 42
1.0
 10
105.047098753079
 20
130.1846039540754
 42
1.0
  0
SPLINE
  5
6DF
330
1F
100
AcDbEntity
  8
Sichtbare_Kanten_TC_020513_DIN_
  6
Continuous
 62
     7
100
AcDbSpline
210
0.0
220
0.0
230
1.0
 70
     8
 71
     3
 72
    19
 73
    15
 74
    13
 42
0.000000001
 43
0.0000000001
 44
0.00000001
 40
0.0
 40
0.0
 40
0.0
 40
0.0
 40
0.3221862205370301
 40
0.6443862618343539
 40
0.8094705328398154
 40
0.9745562229284034
 40
1.142463280812354
 40
1.310374909567435
 40
1.48089593177399
 40
1.651417687594132
 40
1.824033462668657
 40
1.996661195040704
 40
2.257865073018976
 40
2.51889498788848
 40
2.51889498788848
 40
2.51889498788848
 40
2.51889498788848
 10
209.873603542684
 20
129.8853755238874
 30
0.0
 10
209.9098172055618
 20
129.7839412032489
 30
0.0
 10
209.9822460982849
 20
129.5810682162136
 30
0.0
 10
210.1316377447182
 20
129.3533777727051
 30
0.0
 10
210.2719914215549
 20
129.1872015341459
 30
0.0
 10
210.3903385926101
 20
129.0703846993319
 30
0.0
 10
210.5189873624028
 20
128.9636506566824
 30
0.0
 10
210.6577673747305
 20
128.8672376697522
 30
0.0
 10
210.8049015276901
 20
128.7823784754983
 30
0.0
 10
210.959951941484
 20
128.709316673073
 30
0.0
 10
211.121108879536
 20
128.6488147721027
 30
0.0
 10
211.3156824548252
 20
128.5935589814947
 30
0.0
 10
211.544222729213
 20
128.5508154894329
 30
0.0
 10
211.7183970462257
 20
128.5448707527232
 30
0.0
 10
211.805455195261
 20
128.5418993818335
 30
0.0
 11
209.873603542684
 21
129.8853755238874
 31
0.0
 11
209.9938679538802
 21
129.5864768231731
 31
0.0
 11
210.1671511066841
 21
129.3148413744555
 31
0.0
 11
210.2738453194362
 21
129.1888685130812
 31
0.0
 11
210.391241632889
 21
129.072802191795
 31
0.0
 11
210.5204345129963
 21
128.96555490708
 31
0.0
 11
210.6583023225599
 21
128.8697072028944
 31
0.0
 11
210.8059895741285
 21
128.7844669837002
 31
0.0
 11
210.9602186717804
 21
128.7117273462202
 31
0.0
 11
211.1218283629975
 21
128.6510765942126
 31
0.0
 11
211.2878171050565
 21
128.6036627597754
 31
0.0
 11
211.5448831921551
 21
128.55735408643
 31
0.0
 11
211.805455195261
 21
128.5418993818335
 31
0.0
  0
SPLINE
  5
6E0
330
1F
100
AcDbEntity
  8
Sichtbare_Kanten_TC_020513_DIN_
  6
Continuous
 62
     7
100
AcDbSpline
210
0.0
220
0.0
230
1.0
 70
     8
 71
     3
 72
    19
 73
    15
 74
    13
 42
0.000000001
 43
0.0000000001
 44
0.00000001
 40
0.0
 40
0.0
 40
0.0
 40
0.0
 40
0.3221862205370564
 40
0.6443862618343803
 40
0.8094705328398202
 40
0.9745562229283882
 40
1.142463280812357
 40
1.310374909567438
 40
1.480895931773989
 40
1.651417687594209
 40
1.824033462668921
 40
1.996661195041229
 40
2.257865073019819
 40
2.51889498788933
 40
2.51889498788933
 40
2.51889498788933
 40
2.51889498788933
 10
209.873603542684
 20
129.2937099574504
 30
0.0
 10
209.9098172055618
 20
129.1922756368119
 30
0.0
 10
209.9822460982849
 20
128.9894026497766
 30
0.0
 10
210.1316377447182
 20
128.7617122062681
 30
0.0
 10
210.2719914215548
 20
128.5955359677089
 30
0.0
 10
210.3903385926102
 20
128.4787191328949
 30
0.0
 10
210.5189873624028
 20
128.3719850902454
 30
0.0
 10
210.6577673747304
 20
128.2755721033151
 30
0.0
 10
210.8049015276902
 20
128.1907129090613
 30
0.0
 10
210.9599519414842
 20
128.1176511066361
 30
0.0
 10
211.1211088795365
 20
128.0571492056659
 30
0.0
 10
211.3156824548256
 20
128.0018934150577
 30
0.0
 10
211.5442227292139
 20
127.9591499229959
 30
0.0
 10
211.7183970462266
 20
127.9532051862862
 30
0.0
 10
211.8054551952619
 20
127.9502338153964
 30
0.0
 11
209.873603542684
 21
129.2937099574504
 31
0.0
 11
209.9938679538802
 21
128.9948112567361
 31
0.0
 11
210.1671511066841
 21
128.7231758080185
 31
0.0
 11
210.2738453194362
 21
128.5972029466442
 31
0.0
 11
210.391241632889
 21
128.4811366253581
 31
0.0
 11
210.5204345129963
 21
128.373889340643
 31
0.0
 11
210.6583023225599
 21
128.2780416364574
 31
0.0
 11
210.8059895741285
 21
128.1928014172633
 31
0.0
 11
210.9602186717805
 21
128.1200617797834
 31
0.0
 11
211.1218283629978
 21
128.0594110277758
 31
0.0
 11
211.2878171050571
 21
128.0119971933385
 31
0.0
 11
211.544883192156
 21
127.965688519993
 31
0.0
 11
211.8054551952619
 21
127.9502338153964
 31
0.0
  0
SPLINE
  5
6E1
330
1F
100
AcDbEntity
  8
Sichtbare_Kanten_TC_020513_DIN_
  6
Continuous
 62
     7
100
AcDbSpline
210
0.0
220
0.0
230
1.0
 70
     8
 71
     3
 72
    19
 73
    15
 74
    13
 42
0.000000001
 43
0.0000000001
 44
0.00000001
 40
0.0
 40
0.0
 40
0.0
 40
0.0
 40
0.3474606674147983
 40
0.6949175350296264
 40
0.8665696488948211
 40
1.038221191656092
 40
1.207484861390622
 40
1.376745209810191
 40
1.543251855853678
 40
1.709751057159912
 40
1.873443934533296
 40
2.037147336109434
 40
2.278188137688395
 40
2.518986528947449
 40
2.518986528947449
 40
2.518986528947449
 40
2.518986528947449
 10
236.0602252955519
 20
128.5418993818335
 30
0.0
 10
236.1761570654647
 20
128.5471563442254
 30
0.0
 10
236.4080193363133
 20
128.5576702261939
 30
0.0
 10
236.6900911424843
 20
128.6287435439063
 30
0.0
 10
236.9058752443183
 20
128.7093105197248
 30
0.0
 10
237.060611992632
 20
128.7823043329698
 30
0.0
 10
237.2080887814903
 20
128.8673505030162
 30
0.0
 10
237.3465168878103
 20
128.9635102298823
 30
0.0
 10
237.4755271756419
 20
129.0705419242506
 30
0.0
 10
237.5934484657301
 20
129.1870492358249
 30
0.0
 10
237.700112191272
 20
129.3127857009605
 30
0.0
 10
237.8089873616019
 20
129.4680218594098
 30
0.0
 10
237.9141210778733
 20
129.6570443146607
 30
0.0
 10
237.9661003793835
 20
129.8092906505099
 30
0.0
 10
237.992076948131
 20
129.8853755238874
 30
0.0
 11
236.0602252955519
 21
128.5418993818335
 31
0.0
 11
236.4066046148422
 21
128.5692906680727
 31
0.0
 11
236.7442655822033
 21
128.6512134766284
 31
0.0
 11
236.9049742013515
 21
128.7115225810295
 31
0.0
 11
237.0602252955522
 21
128.7847438214639
 31
0.0
 11
237.2068226035118
 21
128.8693571737091
 31
0.0
 11
237.3458005149255
 21
128.9659708678771
 31
0.0
 11
237.4739100861748
 21
129.0723306402091
 31
0.0
 11
237.59231418179
 21
129.1893881237674
 31
0.0
 11
237.6981104871249
 21
129.3142980921399
 31
0.0
 11
237.792276103121
 21
129.44820716887
 31
0.0
 11
237.9075305208485
 21
129.659907637186
 31
0.0
 11
237.992076948131
 21
129.8853755238874
 31
0.0
  0
SPLINE
  5
6E2
330
1F
100
AcDbEntity
  8
Sichtbare_Kanten_TC_020513_DIN_
  6
Continuous
 62
     7
100
AcDbSpline
210
0.0
220
0.0
230
1.0
 70
     8
 71
     3
 72
    19
 73
    15
 74
    13
 42
0.000000001
 43
0.0000000001
 44
0.00000001
 40
0.0
 40
0.0
 40
0.0
 40
0.0
 40
0.3474606674141295
 40
0.6949175350289885
 40
0.8665696488941033
 40
1.038221191655118
 40
1.207484861389575
 40
1.376745209809334
 40
1.543251855853283
 40
1.7097510571599
 40
1.873443934533105
 40
2.037147336108968
 40
2.278188137687707
 40
2.518986528946481
 40
2.518986528946481
 40
2.518986528946481
 40
2.518986528946481
 10
236.060225295553
 20
127.9502338153964
 30
0.0
 10
236.1761570654655
 20
127.9554907777884
 30
0.0
 10
236.4080193363139
 20
127.9660046597571
 30
0.0
 10
236.6900911424847
 20
128.0370779774693
 30
0.0
 10
236.9058752443186
 20
128.1176449532879
 30
0.0
 10
237.0606119926321
 20
128.1906387665328
 30
0.0
 10
237.2080887814903
 20
128.2756849365792
 30
0.0
 10
237.3465168878104
 20
128.3718446634455
 30
0.0
 10
237.4755271756423
 20
128.4788763578141
 30
0.0
 10
237.5934484657307
 20
128.5953836693886
 30
0.0
 10
237.7001121912726
 20
128.7211201345242
 30
0.0
 10
237.8089873616022
 20
128.8763562929732
 30
0.0
 10
237.9141210778741
 20
129.0653787482237
 30
0.0
 10
237.9661003793837
 20
129.2176250840728
 30
0.0
 10
237.992076948131
 20
129.2937099574504
 30
0.0
 11
236.060225295553
 21
127.9502338153964
 31
0.0
 11
236.4066046148426
 21
127.9776251016357
 31
0.0
 11
236.7442655822038
 21
128.0595479101914
 31
0.0
 11
236.9049742013519
 21
128.1198570145926
 31
0.0
 11
237.0602252955524
 21
128.1930782550269
 31
0.0
 11
237.2068226035118
 21
128.2776916072721
 31
0.0
 11
237.3458005149257
 21
128.3743053014403
 31
0.0
 11
237.4739100861753
 21
128.4806650737726
 31
0.0
 11
237.5923141817908
 21
128.5977225573311
 31
0.0
 11
237.6981104871256
 21
128.7226325257036
 31
0.0
 11
237.7922761031215
 21
128.8565416024333
 31
0.0
 11
237.9075305208491
 21
129.0682420707491
 31
0.0
 11
237.992076948131
 21
129.2937099574504
 31
0.0
  0
LWPOLYLINE
  5
6E3
330
1F
100
AcDbEntity
  8
Sichtbare_Kanten_TC_020513_DIN_
  6
Continuous
 62
     7
100
AcDbPolyline
 90
       25
 70
     0
 43
0.5
 10
201.553849595232
 20
147.7665841824994
 10
201.555675881548
 20
147.7575004346365
 10
201.557812112016
 20
147.7475214250075
 10
201.560301201982
 20
147.7367663629044
 10
201.563178914232
 20
147.7253592259874
 10
201.5664929324809
 20
147.7134204156394
 10
201.570279019518
 20
147.7010715253344
 10
201.574577706499
 20
147.6884353406424
 10
201.579431908769
 20
147.6756322629445
 10
201.5848821574869
 20
147.6627850778095
 10
201.590968983812
 20
147.6500153787125
 10
201.5977305347149
 20
147.6374447591294
 10
201.6052121097269
 20
147.6251948125355
 10
201.613449471635
 20
147.6133871324055
 10
201.6224855357829
 20
147.6021445043074
 10
201.632291691942
 20
147.5916600472914
 10
201.642722504777
 20
147.5821829087724
 10
201.653775590105
 20
147.5737440831655
 10
201.665460484666
 20
147.5663638360495
 10
201.6777891093919
 20
147.5600636250964
 10
201.690742390794
 20
147.5548732526295
 10
201.704279797716
 20
147.5508225209704
 10
201.7183917934129
 20
147.5479197747694
 10
201.7330688411419
 20
147.5461733586774
 10
201.7483109409039
 20
147.5455892331594
  0
LWPOLYLINE
  5
6E4
330
1F
100
AcDbEntity
  8
Sichtbare_Kanten_TC_020513_DIN_
  6
Continuous
 62
     7
100
AcDbPolyline
 90
       25
 70
     0
 43
0.5
 10
200.563780682725
 20
147.5455892331594
 10
200.53436221425
 20
147.5461280591474
 10
200.5059403354349
 20
147.5477481133924
 10
200.478524583024
 20
147.5504541642654
 10
200.45212449376
 20
147.5542509801375
 10
200.426749604386
 20
147.5591409451955
 10
200.402411835832
 20
147.5651300199025
 10
200.379118340654
 20
147.5722217805374
 10
200.356881039781
 20
147.5804209954725
 10
200.335711854142
 20
147.5897312409865
 10
200.3156274730389
 20
147.6001525170794
 10
200.2970403606119
 20
147.6114344842424
 10
200.2800911838239
 20
147.6233482606405
 10
200.2646941119859
 20
147.6357579476824
 10
200.2507728511519
 20
147.6485300309645
 10
200.2382463390059
 20
147.6615298039905
 10
200.227031129045
 20
147.6746225602614
 10
200.217048543138
 20
147.6876747853744
 10
200.208215134782
 20
147.7005505807395
 10
200.200452225847
 20
147.7131164319505
 10
200.1936787540149
 20
147.7252364404195
 10
200.187813656969
 20
147.7367782838334
 10
200.1827758723919
 20
147.7476060636034
 10
200.178484337968
 20
147.7575862653245
 10
200.17485799138
 20
147.7665841824994
  0
LWPOLYLINE
  5
6E5
330
1F
100
AcDbEntity
  8
Sichtbare_Kanten_TC_020513_DIN_
  6
Continuous
 62
     7
100
AcDbPolyline
 90
       25
 70
     0
 43
0.5
 10
202.2462409907999
 20
147.5455892331594
 10
202.273711579484
 20
147.5445735700124
 10
202.3012751514139
 20
147.5415504224295
 10
202.328874486131
 20
147.5365591294755
 10
202.356452363176
 20
147.5296378381244
 10
202.383951562089
 20
147.5208258874405
 10
202.411307709855
 20
147.5101661927695
 10
202.4382537776649
 20
147.4978018052564
 10
202.464661019487
 20
147.4838507421004
 10
202.490493672532
 20
147.4683952577105
 10
202.5157135898299
 20
147.4515176064954
 10
202.540282624406
 20
147.4333024270524
 10
202.5641673976599
 20
147.4138319737905
 10
202.5872391635599
 20
147.3932707555285
 10
202.6089519435589
 20
147.3722172029004
 10
202.629229443711
 20
147.3509657628524
 10
202.6480740482039
 20
147.3297429330345
 10
202.665492909593
 20
147.3087775952805
 10
202.681483643693
 20
147.2882986314284
 10
202.696055787248
 20
147.2685325391284
 10
202.709211724443
 20
147.2497070081224
 10
202.720956223649
 20
147.2320509202475
 10
202.731289284868
 20
147.2157919652454
 10
202.740218060655
 20
147.2011578328595
 10
202.747744935197
 20
147.1883774049275
  0
LWPOLYLINE
  5
6E6
330
1F
100
AcDbEntity
  8
Sichtbare_Kanten_TC_020513_DIN_
  6
Continuous
 62
     7
100
AcDbPolyline
 90
       25
 70
     0
 43
0.5
 10
202.562651055497
 20
147.1883774049275
 10
202.5492376262369
 20
147.1997392423145
 10
202.532603161973
 20
147.2133517510885
 10
202.51277865712
 20
147.2289407498824
 10
202.489792721909
 20
147.2462380177964
 10
202.46367873494
 20
147.2649717576495
 10
202.434462922257
 20
147.2848713643544
 10
202.4021762782749
 20
147.3056674249164
 10
202.36684979741
 20
147.3270869500624
 10
202.32851208989
 20
147.3488605267994
 10
202.287194150132
 20
147.3707175500385
 10
202.2429245883639
 20
147.3923874146925
 10
202.1957343990029
 20
147.4135995156754
 10
202.145654576463
 20
147.4340820558064
 10
202.0928591663059
 20
147.4535238988395
 10
202.03924836461
 20
147.4712109811295
 10
201.985468285722
 20
147.4869752175794
 10
201.931607144517
 20
147.5008297212114
 10
201.8777531558689
 20
147.5127911813245
 10
201.823992150468
 20
147.5228739030355
 10
201.7704123431859
 20
147.5310898072714
 10
201.717099564713
 20
147.5374555833334
 10
201.664142029923
 20
147.5419843442435
 10
201.61162795369
 20
147.5446903951155
 10
201.559643166703
 20
147.5455892331594
  0
LWPOLYLINE
  5
6E7
330
1F
100
AcDbEntity
  8
Sichtbare_Kanten_TC_020513_DIN_
  6
Continuous
 62
     7
100
AcDbPolyline
 90
       25
 70
     0
 43
0.5
 10
202.747744935197
 20
147.1883774049275
 10
202.7554172450719
 20
147.1751022584425
 10
202.763091939134
 20
147.1618271119584
 10
202.770771401567
 20
147.1485531575675
 10
202.778458016557
 20
147.1352792031754
 10
202.786147015733
 20
147.1220064408765
 10
202.793840783281
 20
147.1087324864855
 10
202.8015393192
 20
147.0954585320945
 10
202.80924262349
 20
147.0821857697954
 10
202.8169483119669
 20
147.0689118154045
 10
202.8246587688149
 20
147.0556378610124
 10
202.832371609849
 20
147.0423627145285
 10
202.840089219255
 20
147.0290875680435
 10
202.8478092128459
 20
147.0158136136525
 10
202.8555315906229
 20
147.0025384671675
 10
202.863256352586
 20
146.9892645127764
 10
202.8709811145489
 20
146.9759905583844
 10
202.8787106448829
 20
146.9627177960865
 10
202.886440175218
 20
146.9494438416944
 10
202.894169705552
 20
146.9361698873034
 10
202.9019016200719
 20
146.9228971250045
 10
202.909635918779
 20
146.9096231706134
 10
202.9173702174849
 20
146.8963492162214
 10
202.925104516191
 20
146.8830740697374
 10
202.9328411990819
 20
146.8697989232535
  0
LWPOLYLINE
  5
6E8
330
1F
100
AcDbEntity
  8
Sichtbare_Kanten_TC_020513_DIN_
  6
Continuous
 62
     7
100
AcDbPolyline
 90
       25
 70
     0
 43
0.5
 10
202.9328411990819
 20
146.8697989232535
 10
202.917370217484
 20
146.8830740697374
 10
202.9018992358859
 20
146.8963492162214
 10
202.886430638474
 20
146.9096231706134
 10
202.8709644252479
 20
146.9228971250045
 10
202.855500596207
 20
146.9361698873034
 10
202.840039151353
 20
146.9494438416944
 10
202.824580090684
 20
146.9627177960865
 10
202.809123414201
 20
146.9759905583844
 10
202.793671506089
 20
146.9892645127764
 10
202.778221982163
 20
147.0025384671675
 10
202.762777226609
 20
147.0158136136525
 10
202.747339623612
 20
147.0290875680435
 10
202.7319044048009
 20
147.0423627145285
 10
202.716476338547
 20
147.0556378610124
 10
202.701057809037
 20
147.0689118154045
 10
202.685644047898
 20
147.0821857697954
 10
202.670239823502
 20
147.0954585320945
 10
202.654842751664
 20
147.1087324864855
 10
202.639455216569
 20
147.1220064408765
 10
202.624074834031
 20
147.1352792031754
 10
202.608703988236
 20
147.1485531575675
 10
202.5933426791849
 20
147.1618271119584
 10
202.5779932910619
 20
147.1751022584425
 10
202.562651055497
 20
147.1883774049275
  0
LWPOLYLINE
  5
6E9
330
1F
100
AcDbEntity
  8
Sichtbare_Kanten_TC_020513_DIN_
  6
Continuous
 62
     7
100
AcDbPolyline
 90
       25
 70
     0
 43
0.5
 10
201.532840150041
 20
147.9808449990744
 10
201.532875912828
 20
147.9719174153794
 10
201.532985585374
 20
147.9629886395925
 10
201.53316916768
 20
147.9540610558975
 10
201.53342427556
 20
147.9451334722035
 10
201.5337532931989
 20
147.9362070806014
 10
201.534156220598
 20
147.9272806890004
 10
201.5346306735699
 20
147.9183531053054
 10
201.535179036302
 20
147.9094267137045
 10
201.535801308794
 20
147.9004991300095
 10
201.536495106859
 20
147.8915715463155
 10
201.537262814683
 20
147.8826427705274
 10
201.538102048082
 20
147.8737151868334
 10
201.5390151912399
 20
147.8647864110465
 10
201.539999859972
 20
147.8558576352585
 10
201.541058438463
 20
147.8469300515644
 10
201.5421909267139
 20
147.8380036599625
 10
201.5433949405379
 20
147.8290760762685
 10
201.544670479936
 20
147.8201496846664
 10
201.5460199290939
 20
147.8112221009724
 10
201.5474409038249
 20
147.8022957093704
 10
201.5489334041309
 20
147.7933681256764
 10
201.5504998141949
 20
147.7844405419814
 10
201.552137749834
 20
147.7755129582874
 10
201.553849595232
 20
147.7665841824994
  0
LWPOLYLINE
  5
6EA
330
1F
100
AcDbEntity
  8
Sichtbare_Kanten_TC_020513_DIN_
  6
Continuous
 62
     7
100
AcDbPolyline
 90
       25
 70
     0
 43
0.5
 10
200.17485799138
 20
147.7665841824994
 10
200.17143668477
 20
147.7755129582874
 10
200.1681584293079
 20
147.7844405419814
 10
200.165027993364
 20
147.7933681256764
 10
200.1620406085679
 20
147.8022957093704
 10
200.1591986591049
 20
147.8112221009724
 10
200.1564997607889
 20
147.8201496846664
 10
200.153948681993
 20
147.8290760762685
 10
200.151540654344
 20
147.8380036599625
 10
200.149278062028
 20
147.8469300515644
 10
200.147160905046
 20
147.8558576352585
 10
200.145189183397
 20
147.8647864110465
 10
200.1433652812669
 20
147.8737151868334
 10
200.141684430284
 20
147.8826427705274
 10
200.1401490146349
 20
147.8915715463155
 10
200.138761418504
 20
147.9004991300095
 10
200.137519257707
 20
147.9094267137045
 10
200.136422532243
 20
147.9183531053054
 10
200.135473626299
 20
147.9272806890004
 10
200.1346677715009
 20
147.9362070806014
 10
200.134009736223
 20
147.9451334722035
 10
200.1334995204639
 20
147.9540610558975
 10
200.133132355852
 20
147.9629886395925
 10
200.132913010759
 20
147.9719174153794
 10
200.132839100999
 20
147.9808449990744
  0
LWPOLYLINE
  5
6EB
330
1F
100
AcDbEntity
  8
Sichtbare_Kanten_TC_020513_DIN_
  6
Continuous
 62
     7
100
AcDbPolyline
 90
       25
 70
     0
 43
0.5
 10
208.009358065766
 20
135.9854120261655
 10
208.0191856795969
 20
135.9599417693605
 10
208.029009717149
 20
135.9344899899954
 10
208.038831370515
 20
135.9090638406264
 10
208.048649447602
 20
135.8836686856734
 10
208.058466332597
 20
135.8583116776935
 10
208.068282025498
 20
135.8329987771504
 10
208.0780989104929
 20
135.8077359445084
 10
208.087915795487
 20
135.7825297362794
 10
208.0977338725749
 20
135.7573867089734
 10
208.1075555259409
 20
135.7323122270094
 10
208.117379563493
 20
135.7073140389914
 10
208.1272071773229
 20
135.6823969132894
 10
208.1370359832469
 20
135.6575799233904
 10
208.1468600207989
 20
135.6328821427815
 10
208.156681674165
 20
135.6083089358795
 10
208.166499751252
 20
135.5838662631504
 10
208.1763166362469
 20
135.5595600850574
 10
208.186132329148
 20
135.5353969581115
 10
208.195949214143
 20
135.5113822467314
 10
208.205766099137
 20
135.4875219113814
 10
208.215584176225
 20
135.4638225085724
 10
208.225405829591
 20
135.4402894027224
 10
208.235229867142
 20
135.4169285542955
 10
208.245057480973
 20
135.3937465198034
  0
LWPOLYLINE
  5
6EC
330
1F
100
AcDbEntity
  8
Sichtbare_Kanten_TC_020513_DIN_
  6
Continuous
 62
     7
100
AcDbPolyline
 90
       25
 70
     0
 43
0.5
 10
208.245057480973
 20
134.8020810134404
 10
208.2352298671429
 20
134.8484453804485
 10
208.225405829591
 20
134.8951664812554
 10
208.215584176225
 20
134.9422326929565
 10
208.205766099137
 20
134.9896317965975
 10
208.195949214143
 20
135.0373521692744
 10
208.186132329148
 20
135.0853818900575
 10
208.1763166362469
 20
135.1337084419714
 10
208.166499751252
 20
135.1823205001344
 10
208.156681674165
 20
135.2312058455935
 10
208.1468600207989
 20
135.2803522593964
 10
208.1370359832469
 20
135.3297478206144
 10
208.127207177324
 20
135.3793812043654
 10
208.117379563493
 20
135.4292154557695
 10
208.1075555259409
 20
135.4792124278534
 10
208.0977338725749
 20
135.5293607957354
 10
208.087915795488
 20
135.5796474463934
 10
208.0780989104929
 20
135.6300592668044
 10
208.068282025499
 20
135.6805849320884
 10
208.058466332597
 20
135.7312113292204
 10
208.048649447602
 20
135.7819253451814
 10
208.038831370515
 20
135.8327150590415
 10
208.029009717149
 20
135.8835679538244
 10
208.0191856795969
 20
135.9344709165085
 10
208.009358065766
 20
135.9854120261655
  0
LWPOLYLINE
  5
6ED
330
1F
100
AcDbEntity
  8
Sichtbare_Kanten_TC_020513_DIN_
  6
Continuous
 62
     7
100
AcDbPolyline
 90
       25
 70
     0
 43
0.5
 10
209.510627406281
 20
147.3622262723434
 10
209.482970851105
 20
147.3603916413775
 10
209.455369132202
 20
147.3549080140585
 10
209.427805560273
 20
147.3458028085225
 10
209.400261061829
 20
147.3331070191854
 10
209.372718947571
 20
147.3168492562764
 10
209.345160144013
 20
147.2970569379324
 10
209.317566769761
 20
147.2737610585685
 10
209.2899209434209
 20
147.2469902284134
 10
209.262254851502
 20
147.2168314702504
 10
209.234645980042
 20
147.1834528691765
 10
209.207076447648
 20
147.1469414479724
 10
209.179530757111
 20
147.1073770768634
 10
209.151988642853
 20
147.0648432023515
 10
209.124433415574
 20
147.0194220788465
 10
209.0968471938789
 20
146.9711947686664
 10
209.069212096375
 20
146.9202447183124
 10
209.0415400439919
 20
146.8667149789324
 10
209.013916867417
 20
146.8109119184005
 10
208.986331837815
 20
146.7529726274005
 10
208.9587682658849
 20
146.6930175073134
 10
208.931208270234
 20
146.6311681516164
 10
208.903632777375
 20
146.5675425775044
 10
208.8760250980079
 20
146.5022635705464
 10
208.8483661586459
 20
146.4354503400315
  0
LWPOLYLINE
  5
6EE
330
1F
100
AcDbEntity
  8
Sichtbare_Kanten_TC_020513_DIN_
  6
Continuous
 62
     7
100
AcDbPolyline
 90
       25
 70
     0
 43
0.5
 10
208.8483661586459
 20
146.4354503400315
 10
208.842523711365
 20
146.4215588815204
 10
208.835586922807
 20
146.4059114701734
 10
208.827449696702
 20
146.3886034734234
 10
208.818005936784
 20
146.3697350270734
 10
208.807150738877
 20
146.3494038827414
 10
208.794778006715
 20
146.3277077920425
 10
208.780781644028
 20
146.3047468907824
 10
208.7650579387369
 20
146.2806177384844
 10
208.747499602479
 20
146.2554180867664
 10
208.728000538987
 20
146.2292492635245
 10
208.706457036179
 20
146.2022066361894
 10
208.683242219132
 20
146.1749601609695
 10
208.659672158402
 20
146.1490726716515
 10
208.636006730241
 20
146.1246359593854
 10
208.612439053696
 20
146.1016595609175
 10
208.589164632005
 20
146.0801530129905
 10
208.5663789684
 20
146.0601282365315
 10
208.544276374024
 20
146.0415923840994
 10
208.523053544205
 20
146.0245561845294
 10
208.5029035979929
 20
146.0090303666584
 10
208.484022038621
 20
145.9950244672294
 10
208.466604369324
 20
145.9825492150775
 10
208.450844901246
 20
145.9716129548544
 10
208.436937945527
 20
145.9622264153944
  0
LWPOLYLINE
  5
6EF
330
1F
100
AcDbEntity
  8
Sichtbare_Kanten_TC_020513_DIN_
  6
Continuous
 62
     7
100
AcDbPolyline
 90
       25
 70
     0
 43
0.5
 10
208.8483661586469
 20
146.9086730725755
 10
208.8759964877789
 20
147.0421636350145
 10
208.903575556916
 20
147.1725881345265
 10
208.93112005536
 20
147.2997069604384
 10
208.9586490565959
 20
147.4232805020795
 10
208.986180442018
 20
147.5430679566854
 10
209.013730900926
 20
147.6588320977674
 10
209.0413195068059
 20
147.7703309304704
 10
209.068960564775
 20
147.8773117310994
 10
209.096577780885
 20
147.9791927583204
 10
209.1241461211859
 20
148.0756426103104
 10
209.151685851258
 20
148.1664955861564
 10
209.179214852494
 20
148.2515859849445
 10
209.206748622102
 20
148.3307481057634
 10
209.234306233567
 20
148.4038186318865
 10
209.261906760377
 20
148.4706318624014
 10
209.289554970902
 20
148.5309982545364
 10
209.317190068406
 20
148.5846114404195
 10
209.3448120528879
 20
148.6313450582015
 10
209.372441189927
 20
148.6711085088244
 10
209.400091784638
 20
148.7038111932264
 10
209.427731650513
 20
148.7293219811905
 10
209.4553548270879
 20
148.7475824601644
 10
209.482981579941
 20
148.7585604436384
 10
209.510627406281
 20
148.7622261292924
  0
LWPOLYLINE
  5
6F0
330
1F
100
AcDbEntity
  8
Sichtbare_Kanten_TC_020513_DIN_
  6
Continuous
 62
     7
100
AcDbPolyline
 90
       25
 70
     0
 43
0.5
 10
208.436937945527
 20
145.9622264153944
 10
208.447144644899
 20
145.9759831674095
 10
208.45866860692
 20
145.9918475396624
 10
208.471402543229
 20
146.0097897298325
 10
208.4852367812819
 20
146.0297870881545
 10
208.50006164853
 20
146.0518110043994
 10
208.515769856614
 20
146.0758352525224
 10
208.532249348802
 20
146.1018336064805
 10
208.5493940288249
 20
146.1297810323225
 10
208.567091839952
 20
146.1596489198194
 10
208.5852354938209
 20
146.1914134271135
 10
208.603714125795
 20
146.2250459439744
 10
208.622420447511
 20
146.2605202443594
 10
208.6412447864239
 20
146.2978112943164
 10
208.6600774699869
 20
146.3368916757094
 10
208.6788088256539
 20
146.3777363545885
 10
208.697330372972
 20
146.4203167207234
 10
208.715977090043
 20
146.4656245954024
 10
208.735311644715
 20
146.5154409654134
 10
208.755033629579
 20
146.5697813279624
 10
208.774827140016
 20
146.6286278016555
 10
208.7943726951309
 20
146.6919601209154
 10
208.813356774491
 20
146.7597580201614
 10
208.831459897203
 20
146.8320012338155
 10
208.8483661586469
 20
146.9086730725755
  0
LWPOLYLINE
  5
6F1
330
1F
100
AcDbEntity
  8
Sichtbare_Kanten_TC_020513_DIN_
  6
Continuous
 62
     7
100
AcDbPolyline
 90
       25
 70
     0
 43
0.5
 10
239.01731433217
 20
146.9086730725755
 10
239.034220593614
 20
146.8320012338155
 10
239.0523237163249
 20
146.7597568280685
 10
239.071307795686
 20
146.6919601209154
 10
239.090853350801
 20
146.6286278016555
 10
239.110646861238
 20
146.5697813279624
 10
239.1303688461009
 20
146.5154409654134
 10
239.149703400773
 20
146.4656245954024
 10
239.1683501178449
 20
146.4203167207234
 10
239.186871665162
 20
146.3777363545885
 10
239.205603020829
 20
146.3368916757094
 10
239.2244357043929
 20
146.2978112943164
 10
239.243260043306
 20
146.2605202443594
 10
239.261966365022
 20
146.2250459439744
 10
239.280444996995
 20
146.1914134271135
 10
239.298588650865
 20
146.1596489198194
 10
239.316286461992
 20
146.1297810323225
 10
239.333431142015
 20
146.1018336064805
 10
239.349910634202
 20
146.0758352525224
 10
239.365618842286
 20
146.0518110043994
 10
239.380443709535
 20
146.0297870881545
 10
239.394277947587
 20
146.0097897298325
 10
239.407011883897
 20
145.9918475396624
 10
239.4185358459179
 20
145.9759831674095
 10
239.4287425452889
 20
145.9622264153944
  0
LWPOLYLINE
  5
6F2
330
1F
100
AcDbEntity
  8
Sichtbare_Kanten_TC_020513_DIN_
  6
Continuous
 62
     7
100
AcDbPolyline
 90
       25
 70
     0
 43
0.5
 10
239.4287425452889
 20
145.9622264153944
 10
239.41483558957
 20
145.9716129548544
 10
239.399076121491
 20
145.9825492150775
 10
239.381658452195
 20
145.9950244672294
 10
239.362776892823
 20
146.0090303666584
 10
239.34262694661
 20
146.0245561845294
 10
239.321404116792
 20
146.0415923840994
 10
239.2993015224159
 20
146.0601282365315
 10
239.2765158588109
 20
146.0801530129905
 10
239.2532414371189
 20
146.1016595609175
 10
239.229673760575
 20
146.1246359593854
 10
239.206008332413
 20
146.1490726716515
 10
239.1824382716839
 20
146.1749601609695
 10
239.1592234546359
 20
146.2022066361894
 10
239.137679951829
 20
146.2292492635245
 10
239.1181808883369
 20
146.2554180867664
 10
239.100622552079
 20
146.2806177384844
 10
239.084898846787
 20
146.3047468907824
 10
239.070902484101
 20
146.3277077920425
 10
239.058529751939
 20
146.3494038827414
 10
239.047674554032
 20
146.3697350270734
 10
239.038230794114
 20
146.3886034734234
 10
239.0300935680089
 20
146.4059114701734
 10
239.02315677945
 20
146.4215588815204
 10
239.017314332169
 20
146.4354503400315
  0
LWPOLYLINE
  5
6F3
330
1F
100
AcDbEntity
  8
Sichtbare_Kanten_TC_020513_DIN_
  6
Continuous
 62
     7
100
AcDbPolyline
 90
       25
 70
     0
 43
0.5
 10
238.355053084534
 20
148.7622261292924
 10
238.3826834136659
 20
148.7585640199174
 10
238.410262482804
 20
148.7476158387655
 10
238.437806981247
 20
148.7294340379224
 10
238.465335982483
 20
148.7040758378494
 10
238.492867367905
 20
148.6715960748184
 10
238.520417826813
 20
148.6320483930105
 10
238.548006432694
 20
148.5854912049765
 10
238.5756474906619
 20
148.5319841153614
 10
238.6032647067729
 20
148.4718048818104
 10
238.630834239167
 20
148.4051883466235
 10
238.658373969239
 20
148.3322906739705
 10
238.685901778382
 20
148.2532692201124
 10
238.71343554799
 20
148.1682789571274
 10
238.740993159455
 20
148.0774796254624
 10
238.768593686265
 20
147.9810261971944
 10
238.79624189679
 20
147.8791189439284
 10
238.823876994294
 20
147.7722466237534
 10
238.851498978776
 20
147.6606869943134
 10
238.879128115815
 20
147.5446605927934
 10
238.9067787105269
 20
147.4243974931235
 10
238.934418576402
 20
147.3003554589734
 10
238.962042945069
 20
147.1728849656574
 10
238.9896685058299
 20
147.0422399289595
 10
239.01731433217
 20
146.9086730725755
  0
LWPOLYLINE
  5
6F4
330
1F
100
AcDbEntity
  8
Sichtbare_Kanten_TC_020513_DIN_
  6
Continuous
 62
     7
100
AcDbPolyline
 90
       25
 70
     0
 43
0.5
 10
239.017314332169
 20
146.4354503400315
 10
238.989657776994
 20
146.5022576100814
 10
238.962057250184
 20
146.5675211198324
 10
238.934492486161
 20
146.6311204679004
 10
238.90694917981
 20
146.6929364449964
 10
238.8794058734589
 20
146.7528498418324
 10
238.851847069901
 20
146.8107414491165
 10
238.8242536956489
 20
146.8664920575614
 10
238.796607869309
 20
146.9199812657824
 10
238.76894177739
 20
146.9709992654314
 10
238.74133290593
 20
147.0192766435135
 10
238.713763373536
 20
147.0647287614334
 10
238.6862176829989
 20
147.1072769410604
 10
238.6586755687409
 20
147.1468413121694
 10
238.6311203414619
 20
147.1833443887225
 10
238.603534119767
 20
147.2167051084034
 10
238.575899022263
 20
147.2468459851735
 10
238.54822696988
 20
147.2736585385794
 10
238.520603793305
 20
147.2969925649154
 10
238.4930187637029
 20
147.3168111093034
 10
238.465455191773
 20
147.3330879456985
 10
238.437895196122
 20
147.3457956559645
 10
238.410319703263
 20
147.3549056298724
 10
238.382712023896
 20
147.3603916413775
 10
238.355053084534
 20
147.3622262723434
  0
LWPOLYLINE
  5
6F5
330
1F
100
AcDbEntity
  8
Sichtbare_Kanten_TC_020513_DIN_
  6
Continuous
 62
     7
100
AcDbPolyline
 90
       25
 70
     0
 43
0.5
 10
246.1173695499129
 20
147.5455892331594
 10
246.1316365176859
 20
147.5460982568255
 10
246.1453837329569
 20
147.5476193673605
 10
246.1586111957259
 20
147.5501418359274
 10
246.171318905992
 20
147.5536537415974
 10
246.1835044795699
 20
147.5581467397204
 10
246.1951703006449
 20
147.5636101014605
 10
246.2063163692179
 20
147.5700307137954
 10
246.2169426852889
 20
147.5774014241684
 10
246.227046864671
 20
147.5857091195574
 10
246.2366193706219
 20
147.5949323422904
 10
246.2456292087259
 20
147.6050162560935
 10
246.2540906840989
 20
147.6159334428305
 10
246.2620157176681
 20
147.6276600606435
 10
246.2694186145489
 20
147.6401758439534
 10
246.276313679857
 20
147.6534557588094
 10
246.282681840105
 20
147.6673841722004
 10
246.288356202287
 20
147.6814210660444
 10
246.293360608263
 20
147.6953339822285
 10
246.297737973375
 20
147.7089512593734
 10
246.3015335971539
 20
147.7221012361044
 10
246.304795163316
 20
147.7346122510425
 10
246.307570355577
 20
147.7463114507185
 10
246.309899705095
 20
147.7570259816635
 10
246.311830895586
 20
147.7665841824994
  0
LWPOLYLINE
  5
6F6
330
1F
100
AcDbEntity
  8
Sichtbare_Kanten_TC_020513_DIN_
  6
Continuous
 62
     7
100
AcDbPolyline
 90
       25
 70
     0
 43
0.5
 10
247.690822499437
 20
147.7665841824994
 10
247.68718423192
 20
147.7575540788164
 10
247.6828736240101
 20
147.7475404984944
 10
247.677814381761
 20
147.7366769559374
 10
247.671925442857
 20
147.7251017339224
 10
247.665123360795
 20
147.7129459626665
 10
247.657327073259
 20
147.7003491170395
 10
247.648457902116
 20
147.6874423272604
 10
247.638434785051
 20
147.6743638761034
 10
247.6271742755599
 20
147.6612484700675
 10
247.614595311326
 20
147.6482296235554
 10
247.600619214219
 20
147.6354444272504
 10
247.585164921922
 20
147.6230263955584
 10
247.568148987932
 20
147.6111126191605
 10
247.549490349931
 20
147.5998378045555
 10
247.5294250423141
 20
147.5894713647354
 10
247.508291619462
 20
147.5802147634024
 10
247.4860972339339
 20
147.5720644242755
 10
247.462853806657
 20
147.5650131947984
 10
247.43856849019
 20
147.5590598828784
 10
247.413255589647
 20
147.5541985280505
 10
247.386922257585
 20
147.5504255540365
 10
247.359578030748
 20
147.5477361924635
 10
247.331234830064
 20
147.5461256749624
 10
247.301899808091
 20
147.5455892331594
  0
LWPOLYLINE
  5
6F7
330
1F
100
AcDbEntity
  8
Sichtbare_Kanten_TC_020513_DIN_
  6
Continuous
 62
     7
100
AcDbPolyline
 90
       25
 70
     0
 43
0.5
 10
246.311830895586
 20
147.7665841824994
 10
246.3135427409839
 20
147.7755129582874
 10
246.3151806766219
 20
147.7844405419814
 10
246.316747086687
 20
147.7933681256764
 10
246.318239586992
 20
147.8022957093704
 10
246.319660561723
 20
147.8112221009724
 10
246.3210100108809
 20
147.8201496846664
 10
246.3222855502789
 20
147.8290760762685
 10
246.3234895641041
 20
147.8380036599625
 10
246.324622052354
 20
147.8469300515644
 10
246.325680630846
 20
147.8558576352585
 10
246.326665299577
 20
147.8647864110465
 10
246.327578442735
 20
147.8737151868334
 10
246.328417676134
 20
147.8826427705274
 10
246.329185383958
 20
147.8915715463155
 10
246.329879182024
 20
147.9004991300095
 10
246.330501454515
 20
147.9094267137045
 10
246.3310498172469
 20
147.9183531053054
 10
246.331524270219
 20
147.9272806890004
 10
246.331927197618
 20
147.9362070806014
 10
246.3322562152569
 20
147.9451334722035
 10
246.332511323137
 20
147.9540610558975
 10
246.3326949054429
 20
147.9629886395925
 10
246.332804577989
 20
147.9719174153794
 10
246.332840340776
 20
147.9808449990744
  0
LWPOLYLINE
  5
6F8
330
1F
100
AcDbEntity
  8
Sichtbare_Kanten_TC_020513_DIN_
  6
Continuous
 62
     7
100
AcDbPolyline
 90
       25
 70
     0
 43
0.5
 10
247.7328413898179
 20
147.9808449990744
 10
247.732767480058
 20
147.9719174153794
 10
247.732548134966
 20
147.9629886395925
 10
247.7321809703541
 20
147.9540610558975
 10
247.731670754594
 20
147.9451334722035
 10
247.731012719316
 20
147.9362070806014
 10
247.730206864519
 20
147.9272806890004
 10
247.729257958574
 20
147.9183531053054
 10
247.7281612331099
 20
147.9094267137045
 10
247.7269190723131
 20
147.9004991300095
 10
247.725531476182
 20
147.8915715463155
 10
247.723996060533
 20
147.8826427705274
 10
247.7223152095499
 20
147.8737151868334
 10
247.72049130742
 20
147.8647864110465
 10
247.718519585771
 20
147.8558576352585
 10
247.716402428789
 20
147.8469300515644
 10
247.714139836473
 20
147.8380036599625
 10
247.7117318088241
 20
147.8290760762685
 10
247.7091807300279
 20
147.8201496846664
 10
247.706481831712
 20
147.8112221009724
 10
247.7036398822489
 20
147.8022957093704
 10
247.700652497453
 20
147.7933681256764
 10
247.6975220615101
 20
147.7844405419814
 10
247.694243806047
 20
147.7755129582874
 10
247.690822499437
 20
147.7665841824994
  0
LWPOLYLINE
  5
6F9
330
1F
100
AcDbEntity
  8
Sichtbare_Kanten_TC_020513_DIN_
  6
Continuous
 62
     7
100
AcDbPolyline
 90
       25
 70
     0
 43
0.5
 10
244.932839291734
 20
146.8697989232535
 10
244.9405759746259
 20
146.8830740697374
 10
244.948310273332
 20
146.8963492162214
 10
244.9560445720379
 20
146.9096231706134
 10
244.963778870744
 20
146.9228971250045
 10
244.971510785264
 20
146.9361698873034
 10
244.979240315599
 20
146.9494438416944
 10
244.986969845933
 20
146.9627177960865
 10
244.9946993762679
 20
146.9759905583844
 10
245.002424138231
 20
146.9892645127764
 10
245.010148900193
 20
147.0025384671675
 10
245.017871277971
 20
147.0158136136525
 10
245.025591271562
 20
147.0290875680435
 10
245.0333088809669
 20
147.0423627145285
 10
245.041021722001
 20
147.0556378610124
 10
245.048732178849
 20
147.0689118154045
 10
245.056437867326
 20
147.0821857697954
 10
245.064141171617
 20
147.0954585320945
 10
245.071839707536
 20
147.1087324864855
 10
245.0795334750839
 20
147.1220064408765
 10
245.08722247426
 20
147.1352792031754
 10
245.09490908925
 20
147.1485531575675
 10
245.1025885516829
 20
147.1618271119584
 10
245.110263245744
 20
147.1751022584425
 10
245.117935555619
 20
147.1883774049275
  0
LWPOLYLINE
  5
6FA
330
1F
100
AcDbEntity
  8
Sichtbare_Kanten_TC_020513_DIN_
  6
Continuous
 62
     7
100
AcDbPolyline
 90
       25
 70
     0
 43
0.5
 10
245.303029435319
 20
147.1883774049275
 10
245.287687199753
 20
147.1751022584425
 10
245.272337811631
 20
147.1618271119584
 10
245.2569765025799
 20
147.1485531575675
 10
245.241605656785
 20
147.1352792031754
 10
245.226225274247
 20
147.1220064408765
 10
245.210837739152
 20
147.1087324864855
 10
245.1954406673129
 20
147.0954585320945
 10
245.180036442918
 20
147.0821857697954
 10
245.1646226817789
 20
147.0689118154045
 10
245.149204152268
 20
147.0556378610124
 10
245.133776086015
 20
147.0423627145285
 10
245.118340867204
 20
147.0290875680435
 10
245.1029032642069
 20
147.0158136136525
 10
245.0874585086529
 20
147.0025384671675
 10
245.0720089847269
 20
146.9892645127764
 10
245.056557076615
 20
146.9759905583844
 10
245.041100400132
 20
146.9627177960865
 10
245.025641339463
 20
146.9494438416944
 10
245.0101798946079
 20
146.9361698873034
 10
244.994716065568
 20
146.9228971250045
 10
244.979249852341
 20
146.9096231706134
 10
244.963781254929
 20
146.8963492162214
 10
244.948310273331
 20
146.8830740697374
 10
244.932839291734
 20
146.8697989232535
  0
LWPOLYLINE
  5
6FB
330
1F
100
AcDbEntity
  8
Sichtbare_Kanten_TC_020513_DIN_
  6
Continuous
 62
     7
100
AcDbPolyline
 90
       25
 70
     0
 43
0.5
 10
245.117935555619
 20
147.1883774049275
 10
245.125164406938
 20
147.2006559617514
 10
245.1337856227579
 20
147.2148025281424
 10
245.143801587266
 20
147.2305929906354
 10
245.155212300462
 20
147.2478056199545
 10
245.168017762346
 20
147.2662151105394
 10
245.182222741288
 20
147.2855973489274
 10
245.197824853105
 20
147.3057306058394
 10
245.214826481981
 20
147.3263895757185
 10
245.233230012101
 20
147.3473501451005
 10
245.2530354434669
 20
147.3683905847065
 10
245.274242776078
 20
147.3892867810714
 10
245.29685439412
 20
147.4098134286394
 10
245.320848839921
 20
147.4297309167374
 10
245.345732587022
 20
147.4485028035634
 10
245.37128629033
 20
147.4658990151874
 10
245.3974718028729
 20
147.4818337209214
 10
245.42424382512
 20
147.4962175137984
 10
245.451559441728
 20
147.5089633710375
 10
245.47935427968
 20
147.5199747331134
 10
245.507339852494
 20
147.5290918595784
 10
245.535401719255
 20
147.5362515695084
 10
245.56347789113
 20
147.5414145238395
 10
245.591511147661
 20
147.5445401914114
 10
245.619439500016
 20
147.5455892331594
  0
LWPOLYLINE
  5
6FC
330
1F
100
AcDbEntity
  8
Sichtbare_Kanten_TC_020513_DIN_
  6
Continuous
 62
     7
100
AcDbPolyline
 90
       25
 70
     0
 43
0.5
 10
246.3060373241129
 20
147.5455892331594
 10
246.259469407243
 20
147.5448656327714
 10
246.2124651843729
 20
147.5426876790515
 10
246.165086644334
 20
147.5390446431624
 10
246.1173957759559
 20
147.5339281804554
 10
246.06945456807
 20
147.5273263699994
 10
246.021327393693
 20
147.5192320592394
 10
245.9730714732831
 20
147.5096345193375
 10
245.924751179856
 20
147.4985230214585
 10
245.876428502244
 20
147.4858892209524
 10
245.828165429276
 20
147.4717235810744
 10
245.78002633397
 20
147.4560129888045
 10
245.7321041995709
 20
147.4387347943774
 10
245.684499161881
 20
147.4198627717484
 10
245.637301819962
 20
147.3993718869674
 10
245.590605157059
 20
147.3772406823624
 10
245.5445069247899
 20
147.3534429318895
 10
245.500711815995
 20
147.3288727052205
 10
245.4607790881811
 20
147.3046422250264
 10
245.4247158939059
 20
147.2811436898695
 10
245.392543690842
 20
147.2587704904074
 10
245.364274399918
 20
147.2379160172934
 10
245.339919942063
 20
147.2189700849044
 10
245.319501774949
 20
147.2023260838975
 10
245.303029435319
 20
147.1883774049275
  0
LWPOLYLINE
  5
6FD
330
1F
100
AcDbEntity
  8
Sichtbare_Kanten_TC_020513_DIN_
  6
Continuous
 62
     7
100
AcDbPolyline
 90
       25
 70
     0
 43
0.5
 10
239.85632242505
 20
135.9854120261655
 10
239.846494811219
 20
135.9344709165085
 10
239.836670773667
 20
135.8835679538244
 10
239.826849120301
 20
135.8327150590415
 10
239.817031043214
 20
135.7819253451814
 10
239.807214158219
 20
135.7312113292204
 10
239.797398465318
 20
135.6805849320884
 10
239.787581580323
 20
135.6300592668044
 10
239.777764695329
 20
135.5796474463934
 10
239.767946618242
 20
135.5293607957354
 10
239.758124964875
 20
135.4792124278534
 10
239.748300927324
 20
135.4292154557695
 10
239.738473313493
 20
135.3793812043654
 10
239.72864450757
 20
135.3297478206144
 10
239.7188204700179
 20
135.2803522593964
 10
239.708998816652
 20
135.2312058455935
 10
239.699180739564
 20
135.1823205001344
 10
239.6893638545699
 20
135.1337084419714
 10
239.679548161668
 20
135.0853818900575
 10
239.669731276674
 20
135.0373521692744
 10
239.6599143916789
 20
134.9896317965975
 10
239.650096314592
 20
134.9422326929565
 10
239.640274661225
 20
134.8951664812554
 10
239.6304506236739
 20
134.8484453804485
 10
239.620623009843
 20
134.8020810134404
  0
LWPOLYLINE
  5
6FE
330
1F
100
AcDbEntity
  8
Sichtbare_Kanten_TC_020513_DIN_
  6
Continuous
 62
     7
100
AcDbPolyline
 90
       25
 70
     0
 43
0.5
 10
239.620623009843
 20
135.3937465198034
 10
239.630450623673
 20
135.4169285542955
 10
239.640274661225
 20
135.4402894027224
 10
239.650096314591
 20
135.4638225085724
 10
239.6599143916789
 20
135.4875219113814
 10
239.669731276673
 20
135.5113822467314
 10
239.679548161668
 20
135.5353969581115
 10
239.689363854569
 20
135.5595600850574
 10
239.699180739564
 20
135.5838662631504
 10
239.7089988166509
 20
135.6083089358795
 10
239.718820470017
 20
135.6328821427815
 10
239.728644507569
 20
135.6575799233904
 10
239.738473313493
 20
135.6823969132894
 10
239.7483009273229
 20
135.7073140389914
 10
239.758124964875
 20
135.7323122270094
 10
239.767946618241
 20
135.7573867089734
 10
239.777764695329
 20
135.7825297362794
 10
239.787581580323
 20
135.8077359445084
 10
239.797398465318
 20
135.8329987771504
 10
239.807214158219
 20
135.8583116776935
 10
239.817031043214
 20
135.8836686856734
 10
239.826849120301
 20
135.9090638406264
 10
239.836670773667
 20
135.9344899899954
 10
239.846494811219
 20
135.9599417693605
 10
239.85632242505
 20
135.9854120261655
  0
LWPOLYLINE
  5
6FF
330
1F
100
AcDbEntity
  8
Sichtbare_Kanten_TC_020513_DIN_
  6
Continuous
 62
     7
100
AcDbPolyline
 90
       25
 70
     0
 43
0.5
 10
47.4972147198759
 20
147.7665841824994
 10
47.47672502718785
 20
147.7575540788164
 10
47.45336954317907
 20
147.7475404984944
 10
47.42723886690959
 20
147.7366769559374
 10
47.39843313418248
 20
147.7251017339224
 10
47.36703817568639
 20
147.7129459626665
 10
47.33315889559606
 20
147.7003491170395
 10
47.2968858929716
 20
147.6874423272604
 10
47.25830976687286
 20
147.6743638761034
 10
47.21753065310338
 20
147.6612484700675
 10
47.17464391909459
 20
147.6482296235554
 10
47.1297401639066
 20
147.6354444272504
 10
47.0829195233427
 20
147.6230263955584
 10
47.03427259646276
 20
147.6111126191605
 10
46.9838947506986
 20
147.5998378045555
 10
46.93273966036657
 20
147.5894713647354
 10
46.88183729372838
 20
147.5802147634024
 10
46.83123056612828
 20
147.5720644242755
 10
46.78094331942418
 20
147.5650131947984
 10
46.73101846896026
 20
147.5590598828784
 10
46.68148462496617
 20
147.5541985280505
 10
46.63237516604289
 20
147.5504255540365
 10
46.58373300753459
 20
147.5477361924635
 10
46.53558199129918
 20
147.5461256749624
 10
46.48796503268096
 20
147.5455892331594
  0
LWPOLYLINE
  5
700
330
1F
100
AcDbEntity
  8
Sichtbare_Kanten_TC_020513_DIN_
  6
Continuous
 62
     7
100
AcDbPolyline
 90
       25
 70
     0
 43
0.5
 10
47.98046056948516
 20
147.9808449990744
 10
47.96022360049108
 20
147.9719174153794
 10
47.93998663149699
 20
147.9629886395925
 10
47.91975443087438
 20
147.9540610558975
 10
47.89952223025176
 20
147.9451334722035
 10
47.87929956637237
 20
147.9362070806014
 10
47.85908167086456
 20
147.9272806890004
 10
47.83886854372838
 20
147.9183531053054
 10
47.81866018496379
 20
147.9094267137045
 10
47.79846613131389
 20
147.9004991300095
 10
47.77827684603545
 20
147.8915715463155
 10
47.75809709750035
 20
147.8826427705274
 10
47.73792688570836
 20
147.8737151868334
 10
47.71777097903106
 20
147.8647864110465
 10
47.69762937746856
 20
147.8558576352585
 10
47.67750208102086
 20
147.8469300515644
 10
47.65739385805949
 20
147.8380036599625
 10
47.6373047085844
 20
147.8290760762685
 10
47.61722986422399
 20
147.8201496846664
 10
47.59717409334996
 20
147.8112221009724
 10
47.57714216433385
 20
147.8022957093704
 10
47.55712454043248
 20
147.7933681256764
 10
47.53713075838897
 20
147.7844405419814
 10
47.51716081820348
 20
147.7755129582874
 10
47.4972147198759
 20
147.7665841824994
  0
LWPOLYLINE
  5
701
330
1F
100
AcDbEntity
  8
Sichtbare_Kanten_TC_020513_DIN_
  6
Continuous
 62
     7
100
AcDbPolyline
 90
       25
 70
     0
 43
0.5
 10
45.20503942690709
 20
147.1883774049275
 10
45.2030367108427
 20
147.1751022584425
 10
45.20111982546666
 20
147.1618271119584
 10
45.19928400240758
 20
147.1485531575675
 10
45.19753877840856
 20
147.1352792031754
 10
45.19587461672649
 20
147.1220064408765
 10
45.19429628573278
 20
147.1087324864855
 10
45.1928037854276
 20
147.0954585320945
 10
45.19139234743926
 20
147.0821857697954
 10
45.1900715085111
 20
147.0689118154045
 10
45.18883173189977
 20
147.0556378610124
 10
45.1876825543485
 20
147.0423627145285
 10
45.18661443911418
 20
147.0290875680435
 10
45.18563215456817
 20
147.0158136136525
 10
45.1847357007108
 20
147.0025384671675
 10
45.18392030917028
 20
146.9892645127764
 10
45.18319551668981
 20
146.9759905583844
 10
45.18255655489776
 20
146.9627177960865
 10
45.18199865542266
 20
146.9494438416944
 10
45.18153135500768
 20
146.9361698873034
 10
45.18114511690959
 20
146.9228971250045
 10
45.18084470949987
 20
146.9096231706134
 10
45.18063013277867
 20
146.8963492162214
 10
45.1805061551176
 20
146.8830740697374
 10
45.1804632397733
 20
146.8697989232535
  0
LWPOLYLINE
  5
702
330
1F
100
AcDbEntity
  8
Sichtbare_Kanten_TC_020513_DIN_
  6
Continuous
 62
     7
100
AcDbPolyline
 90
       25
 70
     0
 43
0.5
 10
45.54031316958287
 20
147.5455892331594
 10
45.51470224581578
 20
147.5448656327714
 10
45.49001638613561
 20
147.5426876790515
 10
45.46627466402867
 20
147.5390446431624
 10
45.44348661623815
 20
147.5339281804554
 10
45.42166177950719
 20
147.5273263699994
 10
45.40081445895055
 20
147.5192320592394
 10
45.38096372805455
 20
147.5096345193375
 10
45.3621095868192
 20
147.4985230214585
 10
45.34427587710241
 20
147.4858892209524
 10
45.3274673672758
 20
147.4717235810744
 10
45.31170313082555
 20
147.4560129888045
 10
45.29696886263707
 20
147.4387347943774
 10
45.28325025759557
 20
147.4198627717484
 10
45.27053777895787
 20
147.3993718869674
 10
45.25882188998088
 20
147.3772406823624
 10
45.24808828554967
 20
147.3534429318895
 10
45.23861353121617
 20
147.3288727052205
 10
45.23056928835729
 20
147.3046422250264
 10
45.22383157931188
 20
147.2811436898695
 10
45.21826212130407
 20
147.2587704904074
 10
45.21372739992955
 20
147.2379160172934
 10
45.21010343752721
 20
147.2189700849044
 10
45.20725195132116
 20
147.2023260838975
 10
45.20503942690709
 20
147.1883774049275
  0
LWPOLYLINE
  5
703
330
1F
100
AcDbEntity
  8
Sichtbare_Kanten_TC_020513_DIN_
  6
Continuous
 62
     7
100
AcDbPolyline
 90
       25
 70
     0
 43
0.5
 10
45.1804632397733
 20
145.9622264153944
 10
45.18045847140166
 20
145.9716129548544
 10
45.18040601931426
 20
145.9825492150775
 10
45.18024866305206
 20
145.9950244672294
 10
45.17992441378459
 20
146.0090303666584
 10
45.17937128268096
 20
146.0245561845294
 10
45.17853681765416
 20
146.0415923840994
 10
45.1773590298734
 20
146.0601282365315
 10
45.17577593050817
 20
146.0801530129905
 10
45.17373029909948
 20
146.1016595609175
 10
45.17116014681676
 20
146.1246359593854
 10
45.16801302157256
 20
146.1490726716515
 10
45.16422216616491
 20
146.1749601609695
 10
45.1597398968778
 20
146.2022066361894
 10
45.15472833834508
 20
146.2292492635245
 10
45.14934007845739
 20
146.2554180867664
 10
45.1436561795316
 20
146.2806177384844
 10
45.13776247225616
 20
146.3047468907824
 10
45.13174955569127
 20
146.3277077920425
 10
45.12570326052526
 20
146.3494038827414
 10
45.11971418581817
 20
146.3697350270734
 10
45.11386816225866
 20
146.3886034734234
 10
45.10825102053497
 20
146.4059114701734
 10
45.10295335970739
 20
146.4215588815204
 10
45.0980562420927
 20
146.4354503400315
  0
LWPOLYLINE
  5
704
330
1F
100
AcDbEntity
  8
Sichtbare_Kanten_TC_020513_DIN_
  6
Continuous
 62
     7
100
AcDbPolyline
 90
       25
 70
     0
 43
0.5
 10
43.78045980654576
 20
148.7622261292924
 10
43.8937896939359
 20
148.7599325425614
 10
44.00675241671416
 20
148.7530672795764
 10
44.11921446047649
 20
148.7416589505664
 10
44.2310375424467
 20
148.7257349736684
 10
44.34208814822057
 20
148.7053215749255
 10
44.45222799502227
 20
148.6804473645674
 10
44.56132356844756
 20
148.6511397607314
 10
44.66923658572057
 20
148.6174249894615
 10
44.77583353243688
 20
148.5793304688924
 10
44.88097135744908
 20
148.5368871934404
 10
44.98424474917266
 20
148.4902513272754
 10
45.08539144717076
 20
148.4395540006154
 10
45.18430654726836
 20
148.3848738915914
 10
45.28086130343297
 20
148.3262884862415
 10
45.37495557986119
 20
148.2638752706044
 10
45.46646063052037
 20
148.1977129228104
 10
45.55527155123571
 20
148.1278789288984
 10
45.6412691327177
 20
148.0544495828144
 10
45.72433893404821
 20
147.9775059468734
 10
45.80434744082311
 20
147.8971386201374
 10
45.88101808749059
 20
147.8136241681565
 10
45.9542030545316
 20
147.7271211392865
 10
46.02382127962926
 20
147.6377403981674
 10
46.0897821637235
 20
147.5455892331594
  0
LWPOLYLINE
  5
705
330
1F
100
AcDbEntity
  8
Sichtbare_Kanten_TC_020513_DIN_
  6
Continuous
 62
     7
100
AcDbPolyline
 90
       25
 70
     0
 43
0.5
 10
45.0980562420927
 20
146.4354503400315
 10
45.07211630068639
 20
146.5022576100814
 10
45.04284803591588
 20
146.5675211198324
 10
45.01033251009795
 20
146.6311204679004
 10
44.97464124880651
 20
146.6929364449964
 10
44.9358457776151
 20
146.7528498418324
 10
44.8940223904691
 20
146.8107414491165
 10
44.84924738131389
 20
146.8664920575614
 10
44.80159227572295
 20
146.9199812657824
 10
44.75122396670196
 20
146.9709992654314
 10
44.6984190198026
 20
147.0192766435135
 10
44.64329664431426
 20
147.0647287614334
 10
44.5859808178983
 20
147.1072769410604
 10
44.52657644472936
 20
147.1468413121694
 10
44.46520273409709
 20
147.1833443887225
 10
44.40197889529088
 20
147.2167051084034
 10
44.33701460085729
 20
147.2468459851735
 10
44.2705101224027
 20
147.2736585385794
 10
44.20283262453899
 20
147.2969925649154
 10
44.13415376864288
 20
147.3168111093034
 10
44.06460230074737
 20
147.3330879456985
 10
43.99432127199987
 20
147.3457956559645
 10
43.92344419680455
 20
147.3549056298724
 10
43.85211412630895
 20
147.3603916413775
 10
43.78045980654576
 20
147.3622262723434
  0
LWPOLYLINE
  5
706
330
1F
100
AcDbEntity
  8
Sichtbare_Kanten_TC_020513_DIN_
  6
Continuous
 62
     7
100
AcDbPolyline
 90
       25
 70
     0
 43
0.5
 10
46.58046190462926
 20
135.9854120261655
 10
46.5799993725858
 20
135.9344709165085
 10
46.57860700808385
 20
135.8835679538244
 10
46.57629434786657
 20
135.8327150590415
 10
46.57305662356237
 20
135.7819253451814
 10
46.56889860354289
 20
135.7312113292204
 10
46.56382028780797
 20
135.6805849320884
 10
46.55782167635778
 20
135.6300592668044
 10
46.55090276919225
 20
135.5796474463934
 10
46.54307310305455
 20
135.5293607957354
 10
46.53432314120147
 20
135.4792124278534
 10
46.52466242037639
 20
135.4292154557695
 10
46.51409094057897
 20
135.3793812043654
 10
46.50261347018096
 20
135.3297478206144
 10
46.49023954592565
 20
135.2803522593964
 10
46.47697393618449
 20
135.2312058455935
 10
46.46282140932897
 20
135.1823205001344
 10
46.4477819653593
 20
135.1337084419714
 10
46.43186514101836
 20
135.0853818900575
 10
46.41507570467809
 20
135.0373521692744
 10
46.39740888796666
 20
134.9896317965975
 10
46.37887899599889
 20
134.9422326929565
 10
46.35948602877477
 20
134.8951664812554
 10
46.3392299862943
 20
134.8484453804485
 10
46.31812517367229
 20
134.8020810134404
  0
LWPOLYLINE
  5
707
330
1F
100
AcDbEntity
  8
Sichtbare_Kanten_TC_020513_DIN_
  6
Continuous
 62
     7
100
AcDbPolyline
 90
       25
 70
     0
 43
0.5
 10
45.04929010592321
 20
135.3937465198034
 10
45.05984728060588
 20
135.4169285542955
 10
45.06997530184606
 20
135.4402894027224
 10
45.07966940127227
 20
135.4638225085724
 10
45.08893434725616
 20
135.4875219113814
 10
45.09776537142619
 20
135.5113822467314
 10
45.10616247378209
 20
135.5353969581115
 10
45.1141208859525
 20
135.5595600850574
 10
45.12164060793737
 20
135.5838662631504
 10
45.1287168713651
 20
135.6083089358795
 10
45.13534967623571
 20
135.6328821427815
 10
45.14153902254918
 20
135.6575799233904
 10
45.14727537356237
 20
135.6823969132894
 10
45.1525634976469
 20
135.7073140389914
 10
45.15739385805949
 20
135.7323122270094
 10
45.16176645480016
 20
135.7573867089734
 10
45.16568128786901
 20
135.7825297362794
 10
45.16914312563756
 20
135.8077359445084
 10
45.17214243136266
 20
135.8329987771504
 10
45.1746792050443
 20
135.8583116776935
 10
45.17675821505407
 20
135.8836686856734
 10
45.17837946139196
 20
135.9090638406264
 10
45.17953340731481
 20
135.9344899899954
 10
45.18022958956578
 20
135.9599417693605
 10
45.1804632397733
 20
135.9854120261655
  0
LWPOLYLINE
  5
708
330
1F
100
AcDbEntity
  8
Sichtbare_Kanten_TC_020513_DIN_
  6
Continuous
 62
     7
100
AcDbPolyline
 90
       25
 70
     0
 43
0.5
 10
127.206234380825
 20
147.5455892331594
 10
127.1584767552459
 20
147.5461280591474
 10
127.1101874562349
 20
147.5477481133924
 10
127.061397478207
 20
147.5504541642654
 10
127.01214258395
 20
147.5542509801375
 10
126.962458536252
 20
147.5591409451955
 10
126.912381097897
 20
147.5651300199025
 10
126.861938879117
 20
147.5722217805374
 10
126.811172411068
 20
147.5804209954725
 10
126.760112688168
 20
147.5897312409865
 10
126.708826467618
 20
147.6001525170794
 10
126.6585749837
 20
147.6114344842424
 10
126.610052034481
 20
147.6233482606405
 10
126.563352987393
 20
147.6357579476824
 10
126.5185708256799
 20
147.6485300309645
 10
126.475800916775
 20
147.6615298039905
 10
126.435136243924
 20
147.6746225602614
 10
126.396672174557
 20
147.6876747853744
 10
126.360506460293
 20
147.7005505807395
 10
126.326727316006
 20
147.7131164319505
 10
126.295432493313
 20
147.7252364404195
 10
126.266717359646
 20
147.7367782838334
 10
126.240674898251
 20
147.7476060636034
 10
126.217398092373
 20
147.7575862653245
 10
126.196982309445
 20
147.7665841824994
  0
LWPOLYLINE
  5
709
330
1F
100
AcDbEntity
  8
Sichtbare_Kanten_TC_020513_DIN_
  6
Continuous
 62
     7
100
AcDbPolyline
 90
       25
 70
     0
 43
0.5
 10
128.489157602414
 20
147.1883774049275
 10
128.487407610043
 20
147.1997392423145
 10
128.485233232602
 20
147.2133517510885
 10
128.482517644986
 20
147.2289407498824
 10
128.479148790463
 20
147.2462380177964
 10
128.4750169964869
 20
147.2649717576495
 10
128.470003053769
 20
147.2848713643544
 10
128.464002058133
 20
147.3056674249164
 10
128.456892416104
 20
147.3270869500624
 10
128.448569223507
 20
147.3488605267994
 10
128.438913271054
 20
147.3707175500385
 10
128.427817270382
 20
147.3923874146925
 10
128.41516439639
 20
147.4135995156754
 10
128.400840208157
 20
147.4340820558064
 10
128.38476841174
 20
147.4535238988395
 10
128.367282793149
 20
147.4712109811295
 10
128.348512098416
 20
147.4869752175794
 10
128.3284706326569
 20
147.5008297212114
 10
128.307175085171
 20
147.5127911813245
 10
128.284639761075
 20
147.5228739030355
 10
128.260878965481
 20
147.5310898072714
 10
128.235909387692
 20
147.5374555833334
 10
128.209742948636
 20
147.5419843442435
 10
128.182396337613
 20
147.5446903951155
 10
128.153883859738
 20
147.5455892331594
  0
LWPOLYLINE
  5
70A
330
1F
100
AcDbEntity
  8
Sichtbare_Kanten_TC_020513_DIN_
  6
Continuous
 62
     7
100
AcDbPolyline
 90
       25
 70
     0
 43
0.5
 10
128.513736173733
 20
146.8697989232535
 10
128.513693258389
 20
146.8830740697374
 10
128.513564512356
 20
146.8963492162214
 10
128.513352319821
 20
146.9096231706134
 10
128.513051912411
 20
146.9228971250045
 10
128.512668058499
 20
146.9361698873034
 10
128.512198373898
 20
146.9494438416944
 10
128.511642858609
 20
146.9627177960865
 10
128.511001512631
 20
146.9759905583844
 10
128.5102743359649
 20
146.9892645127764
 10
128.509463712796
 20
147.0025384671675
 10
128.508567258938
 20
147.0158136136525
 10
128.507584974392
 20
147.0290875680435
 10
128.506516859158
 20
147.0423627145285
 10
128.505362913235
 20
147.0556378610124
 10
128.50412552081
 20
147.0689118154045
 10
128.502802297696
 20
147.0821857697954
 10
128.501395628079
 20
147.0954585320945
 10
128.499900743588
 20
147.1087324864855
 10
128.498322412594
 20
147.1220064408765
 10
128.496660635098
 20
147.1352792031754
 10
128.494910642727
 20
147.1485531575675
 10
128.493077203854
 20
147.1618271119584
 10
128.491160318478
 20
147.1751022584425
 10
128.489157602414
 20
147.1883774049275
  0
LWPOLYLINE
  5
70B
330
1F
100
AcDbEntity
  8
Sichtbare_Kanten_TC_020513_DIN_
  6
Continuous
 62
     7
100
AcDbPolyline
 90
       25
 70
     0
 43
0.5
 10
126.196982309445
 20
147.7665841824994
 10
126.177036211117
 20
147.7755129582874
 10
126.157063886746
 20
147.7844405419814
 10
126.137072488888
 20
147.7933681256764
 10
126.1170572491729
 20
147.8022957093704
 10
126.097022935971
 20
147.8112221009724
 10
126.076969549283
 20
147.8201496846664
 10
126.056894704922
 20
147.8290760762685
 10
126.036803171261
 20
147.8380036599625
 10
126.0166949483
 20
147.8469300515644
 10
125.996570036038
 20
147.8558576352585
 10
125.976428434475
 20
147.8647864110465
 10
125.956270143612
 20
147.8737151868334
 10
125.936102316006
 20
147.8826427705274
 10
125.9159225674709
 20
147.8915715463155
 10
125.895733282193
 20
147.9004991300095
 10
125.875536844357
 20
147.9094267137045
 10
125.855330869778
 20
147.9183531053054
 10
125.835117742642
 20
147.9272806890004
 10
125.814897462948
 20
147.9362070806014
 10
125.794674799069
 20
147.9451334722035
 10
125.774444982632
 20
147.9540610558975
 10
125.754210397824
 20
147.9629886395925
 10
125.733975813016
 20
147.9719174153794
 10
125.713736459836
 20
147.9808449990744
  0
LWPOLYLINE
  5
70C
330
1F
100
AcDbEntity
  8
Sichtbare_Kanten_TC_020513_DIN_
  6
Continuous
 62
     7
100
AcDbPolyline
 90
       25
 70
     0
 43
0.5
 10
128.596140787228
 20
146.4354503400315
 10
128.591246053799
 20
146.4215588815204
 10
128.585948392972
 20
146.4059114701734
 10
128.580331251248
 20
146.3886034734234
 10
128.574485227688
 20
146.3697350270734
 10
128.568493768796
 20
146.3494038827414
 10
128.562449857815
 20
146.3277077920425
 10
128.55643694125
 20
146.3047468907824
 10
128.550543233975
 20
146.2806177384844
 10
128.5448569508629
 20
146.2554180867664
 10
128.53946630679
 20
146.2292492635245
 10
128.534459516629
 20
146.2022066361894
 10
128.529977247342
 20
146.1749601609695
 10
128.526186391934
 20
146.1490726716515
 10
128.523036882504
 20
146.1246359593854
 10
128.520469114407
 20
146.1016595609175
 10
128.518421098813
 20
146.0801530129905
 10
128.516837999447
 20
146.0601282365315
 10
128.515660211667
 20
146.0415923840994
 10
128.514823362454
 20
146.0245561845294
 10
128.514274999722
 20
146.0090303666584
 10
128.513950750455
 20
145.9950244672294
 10
128.513791010007
 20
145.9825492150775
 10
128.513740942105
 20
145.9716129548544
 10
128.513736173733
 20
145.9622264153944
  0
LWPOLYLINE
  5
70D
330
1F
100
AcDbEntity
  8
Sichtbare_Kanten_TC_020513_DIN_
  6
Continuous
 62
     7
100
AcDbPolyline
 90
       25
 70
     0
 43
0.5
 10
129.913737222775
 20
147.3622262723434
 10
129.842090055569
 20
147.3603916413775
 10
129.770776674374
 20
147.3549080140585
 10
129.699930593594
 20
147.3458028085225
 10
129.629687711819
 20
147.3331070191854
 10
129.560188696011
 20
147.3168492562764
 10
129.491567060574
 20
147.2970569379324
 10
129.42396347247
 20
147.2737610585685
 10
129.357513830288
 20
147.2469902284134
 10
129.29247324191
 20
147.2168314702504
 10
129.229189798459
 20
147.1834528691765
 10
129.167780325039
 20
147.1469414479724
 10
129.108361646756
 20
147.1073770768634
 10
129.0510458203399
 20
147.0648432023515
 10
128.995947286709
 20
147.0194220788465
 10
128.943178102597
 20
146.9711947686664
 10
128.89285270892
 20
146.9202447183124
 10
128.845137998684
 20
146.8667149789324
 10
128.800303384884
 20
146.8109119184005
 10
128.758434698208
 20
146.7529726274005
 10
128.719608232602
 20
146.6930175073134
 10
128.683893129452
 20
146.6311681516164
 10
128.651360914334
 20
146.5675425775044
 10
128.622085497006
 20
146.5022635705464
 10
128.596140787228
 20
146.4354503400315
  0
LWPOLYLINE
  5
70E
330
1F
100
AcDbEntity
  8
Sichtbare_Kanten_TC_020513_DIN_
  6
Continuous
 62
     7
100
AcDbPolyline
 90
       25
 70
     0
 43
0.5
 10
127.604417249783
 20
147.5455892331594
 10
127.670130178555
 20
147.6374066121564
 10
127.739562437161
 20
147.7265858895775
 10
127.812640115841
 20
147.8130078561295
 10
127.889248773678
 20
147.8965103871815
 10
127.96906654559
 20
147.9767394311415
 10
128.051945612057
 20
148.0535745866295
 10
128.137773916348
 20
148.1269324071394
 10
128.22643940173
 20
148.1967342145435
 10
128.317832395657
 20
148.2628965623374
 10
128.411838457211
 20
148.3253383882035
 10
128.508347913846
 20
148.3839774377335
 10
128.607246324643
 20
148.4387326486105
 10
128.708424017056
 20
148.4895217664235
 10
128.8116902562219
 20
148.5362303502554
 10
128.9166921826439
 20
148.5786938912854
 10
129.023281976803
 20
148.6168623216144
 10
129.131330892666
 20
148.6506903417104
 10
129.240703031643
 20
148.6801350362294
 10
129.351252958401
 20
148.7051475293625
 10
129.462670728787
 20
148.7256551034444
 10
129.574765607937
 20
148.7416327245225
 10
129.687401697262
 20
148.7530637032974
 10
129.8004383298
 20
148.7599337346545
 10
129.913737222775
 20
148.7622261292924
  0
LWPOLYLINE
  5
70F
330
1F
100
AcDbEntity
  8
Sichtbare_Kanten_TC_020513_DIN_
  6
Continuous
 62
     7
100
AcDbPolyline
 90
       25
 70
     0
 43
0.5
 10
128.513736173733
 20
135.9854120261655
 10
128.513967439755
 20
135.9599417693605
 10
128.514663622006
 20
135.9344899899954
 10
128.515819952115
 20
135.9090638406264
 10
128.5174388142669
 20
135.8836686856734
 10
128.519517824277
 20
135.8583116776935
 10
128.522056982144
 20
135.8329987771504
 10
128.525056287869
 20
135.8077359445084
 10
128.528513357266
 20
135.7825297362794
 10
128.532430574521
 20
135.7573867089734
 10
128.536805555447
 20
135.7323122270094
 10
128.54163591586
 20
135.7073140389914
 10
128.546921655758
 20
135.6823969132894
 10
128.552660390957
 20
135.6575799233904
 10
128.558847353085
 20
135.6328821427815
 10
128.565480157956
 20
135.6083089358795
 10
128.572556421383
 20
135.5838662631504
 10
128.580076143368
 20
135.5595600850574
 10
128.588034555539
 20
135.5353969581115
 10
128.596429273709
 20
135.5113822467314
 10
128.605262682065
 20
135.4875219113814
 10
128.614527628049
 20
135.4638225085724
 10
128.624224111661
 20
135.4402894027224
 10
128.634349748715
 20
135.4169285542955
 10
128.644904539212
 20
135.3937465198034
  0
LWPOLYLINE
  5
710
330
1F
100
AcDbEntity
  8
Sichtbare_Kanten_TC_020513_DIN_
  6
Continuous
 62
     7
100
AcDbPolyline
 90
       25
 70
     0
 43
0.5
 10
127.376074239834
 20
134.8020810134404
 10
127.354964658841
 20
134.8484453804485
 10
127.334713384732
 20
134.8951664812554
 10
127.315318033322
 20
134.9422326929565
 10
127.296788141354
 20
134.9896317965975
 10
127.279123708829
 20
135.0373521692744
 10
127.262331888302
 20
135.0853818900575
 10
127.246415063962
 20
135.1337084419714
 10
127.2313780041779
 20
135.1823205001344
 10
127.217225477322
 20
135.2312058455935
 10
127.203959867581
 20
135.2803522593964
 10
127.191585943326
 20
135.3297478206144
 10
127.180106088742
 20
135.3793812043654
 10
127.169534608944
 20
135.4292154557695
 10
127.159873888119
 20
135.4792124278534
 10
127.151126310452
 20
135.5293607957354
 10
127.143291875943
 20
135.5796474463934
 10
127.136377737149
 20
135.6300592668044
 10
127.1303791256989
 20
135.6805849320884
 10
127.1252984257779
 20
135.7312113292204
 10
127.121140405758
 20
135.7819253451814
 10
127.117902681454
 20
135.8327150590415
 10
127.115590021237
 20
135.8835679538244
 10
127.114200040921
 20
135.9344709165085
 10
127.113735124692
 20
135.9854120261655
  0
SOLID
  5
711
330
1F
100
AcDbEntity
  8
1
 62
     2
100
AcDbTrace
 10
249.0507489815347
 20
62.66718994649562
 30
0.0
 11
248.5688102600334
 21
62.04132993573145
 31
0.0
 12
246.432840245408
 22
64.18460395407583
 32
0.0
 13
246.432840245408
 23
64.18460395407583
 33
0.0
  0
LEADER
  5
712
330
1F
100
AcDbEntity
  8
1
  6
Continuous
 62
     2
100
AcDbLeader
  3
Standard
 71
     0
 76
     3
 10
246.432840245408
 20
64.18460395407583
 30
0.0
 10
268.693354064997
 20
47.043065294217
 30
0.0
 10
279.482469472502
 20
47.043065294217
 30
0.0
  0
MTEXT
  5
713
330
1F
100
AcDbEntity
  8
1
 62
     7
100
AcDbMText
 10
144.276300688743
 20
12.5
 30
0.0
 40
4.5
 41
0.0
 71
     4
 72
     1
  1
C7AP 10.21\PSurface mounting h. 2 lev. PG21.
  7
CONVERTER_11
 73
     1
 44
0.75727272727273
  0
MTEXT
  5
714
330
1F
100
AcDbEntity
  8
1
 62
     7
100
AcDbMText
 10
119.6
 20
12.4999999999999
 30
0.0
 40
3.0
 41
0.0
 71
     4
 72
     1
  1
08/08/14
  7
CONVERTER_11
 73
     1
 44
0.75727272727273
  0
MTEXT
  5
715
330
1F
100
AcDbEntity
  8
1
 62
     7
100
AcDbMText
 10
119.6
 20
7.49999999999987
 30
0.0
 40
3.0
 41
0.0
 71
     4
 72
     1
  1
Pezzimenti
  7
CONVERTER_11
 73
     1
 44
0.75727272727273
  0
MTEXT
  5
716
330
1F
100
AcDbEntity
  8
1
 62
     7
100
AcDbMText
 10
256.6763006887431
 20
10.0606394207561
 30
0.0
 40
4.5
 41
0.0
 71
     5
 72
     1
  1
1:1
  7
CONVERTER_11
 73
     1
 44
0.75727272727273
  0
MTEXT
  5
718
330
1F
100
AcDbEntity
  8
1
 62
     4
100
AcDbMText
 10
269.758752862329
 20
48.5186404381501
 30
0.0
 40
3.5
 41
0.0
 71
     7
 72
     1
  1
\U+00f85,5
  7
CONVERTER_13
 73
     1
 44
1.32052821128451
  0
DIMENSION
  5
723
330
1F
100
AcDbEntity
  8
1
100
AcDbDimension
  2
*D2
 10
146.281048724795
 20
173.655369188313
 30
0.0
 11
86.84709875307894
 21
177.155369188313
 31
0.0
 70
    32
  1
122
 71
     5
 42
-1.0
 53
0.00013888888889
  3
ME10_DIM_10
100
AcDbAlignedDimension
 13
27.41314878136291
 23
119.1846039540754
 33
0.0
 14
146.281048724795
 24
120.1846039540754
 34
0.0
100
AcDbRotatedDimension
  0
DIMENSION
  5
72E
330
1F
100
AcDbEntity
  8
1
100
AcDbDimension
  2
*D3
 10
45.84709875307897
 20
50.6
 30
0.0
 11
86.84709875307897
 21
54.1
 31
0.0
 70
    32
  1
<>
 71
     5
 42
-1.0
 53
0.00013888888889
  3
ME10_DIM_11
100
AcDbAlignedDimension
 13
127.847098753079
 23
61.68460395407583
 33
0.0
 14
45.84709875307897
 24
61.68460395407583
 34
0.0
100
AcDbRotatedDimension
  0
DIMENSION
  5
739
330
1F
100
AcDbEntity
  8
1
100
AcDbDimension
  2
*D4
 10
133.597098753079
 20
39.0
 30
0.0
 11
86.84709875307897
 21
42.65
 31
0.0
 70
    32
  1
<>
 71
     5
 42
-1.0
 53
0.00013888888889
  3
ME10_DIM_12
100
AcDbAlignedDimension
 13
40.09709875307897
 23
64.18460395407583
 33
0.0
 14
133.597098753079
 24
64.18460395407583
 34
0.0
100
AcDbRotatedDimension
  0
DIMENSION
  5
744
330
1F
100
AcDbEntity
  8
1
100
AcDbDimension
  2
*D5
 10
201.432840245408
 20
50.6
 30
0.0
 11
223.932840245408
 21
54.1
 31
0.0
 70
    32
  1
<>
 71
     5
 42
-1.0
 53
0.00013888888889
  3
ME10_DIM_13
100
AcDbAlignedDimension
 13
246.432840245408
 23
61.68460395407583
 33
0.0
 14
201.432840245408
 24
61.68460395407583
 34
0.0
100
AcDbRotatedDimension
  0
DIMENSION
  5
74F
330
1F
100
AcDbEntity
  8
1
100
AcDbDimension
  2
*D6
 10
195.432840245406
 20
39.0
 30
0.0
 11
223.932840245406
 21
42.5
 31
0.0
 70
    32
  1
<>
 71
     5
 42
-1.0
 53
0.00013888888889
  3
ME10_DIM_14
100
AcDbAlignedDimension
 13
252.432840245406
 23
64.18460395407583
 33
0.0
 14
195.432840245406
 24
64.18460395407583
 34
0.0
100
AcDbRotatedDimension
  0
DIMENSION
  5
75A
330
1F
100
AcDbEntity
  8
1
100
AcDbDimension
  2
*D7
 10
150.576229167443
 20
70.1654730106078
 30
0.0
 11
147.076229167443
 21
83.5650384823416
 31
0.0
 70
    32
  1
PG21
 71
     5
 42
-1.0
 53
90.0
  3
ME10_DIM_15
100
AcDbAlignedDimension
 13
133.997098753079
 23
96.96460395407543
 33
0.0
 14
133.997098753079
 24
70.1654730106078
 34
0.0
 50
90.0
100
AcDbRotatedDimension
  0
DIMENSION
  5
765
330
1F
100
AcDbEntity
  8
1
100
AcDbDimension
  2
*D8
 10
195.432840245416
 20
163.12180084706
 30
0.0
 11
223.932840245416
 21
166.62180084706
 31
0.0
 70
    32
  1
58
 71
     5
 42
-1.0
 53
0.00013888888889
  3
ME10_DIM_16
100
AcDbAlignedDimension
 13
252.432840245416
 23
134.1846039540754
 33
0.0
 14
195.432840245416
 24
134.1846039540754
 34
0.0
100
AcDbRotatedDimension
  0
DIMENSION
  5
770
330
1F
100
AcDbEntity
  8
1
100
AcDbDimension
  2
*D9
 10
271.576206358954
 20
137.1846039540754
 30
0.0
 11
268.076206358954
 21
100.6846039540756
 31
0.0
 70
    32
  1
<>
 71
     5
 42
-1.0
 53
90.0
  3
ME10_DIM_17
100
AcDbAlignedDimension
 13
252.432840245406
 23
64.18460395407583
 33
0.0
 14
245.9828402454119
 24
137.1846039540754
 34
0.0
 50
90.0
100
AcDbRotatedDimension
  0
DIMENSION
  5
77D
330
1F
100
AcDbEntity
  8
1
100
AcDbDimension
  2
*D10
 10
264.001414510547
 20
68.18460395407583
 30
0.0
 11
260.501414510547
 21
66.18460395407583
 31
0.0
 70
    32
  1
<>
 71
     5
 42
-1.0
 53
90.0
  3
ME10_DIM_18
100
AcDbAlignedDimension
 13
252.432840245406
 23
64.18460395407583
 33
0.0
 14
252.432840245406
 24
68.18460395407583
 34
0.0
 50
90.0
100
AcDbRotatedDimension
  0
ENDSEC
  0
SECTION
  2
OBJECTS
  0
DICTIONARY
  5
C
330
0
100
AcDbDictionary
281
     1
  3
ACAD_GROUP
350
D
  3
ACAD_LAYOUT
350
1A
  3
ACAD_MATERIAL
350
3B
  3
ACAD_MLEADERSTYLE
350
780
  3
ACAD_MLINESTYLE
350
17
  3
ACAD_PLOTSETTINGS
350
19
  3
ACAD_PLOTSTYLENAME
350
E
  3
ACAD_VISUALSTYLE
350
2A
  3
AcDbVariableDictionary
350
77E
  0
DICTIONARY
  5
D
102
{ACAD_REACTORS
330
C
102
}
330
C
100
AcDbDictionary
281
     1
  0
DICTIONARY
  5
1A
102
{ACAD_REACTORS
330
C
102
}
330
C
100
AcDbDictionary
281
     1
  3
Layout1
350
1E
  3
Layout2
350
26
  3
Model
350
22
  0
DICTIONARY
  5
3B
102
{ACAD_REACTORS
330
C
102
}
330
C
100
AcDbDictionary
281
     1
  3
ByBlock
350
3D
  3
ByLayer
350
3C
  3
Global
350
3E
  0
DICTIONARY
  5
780
102
{ACAD_REACTORS
330
C
102
}
330
C
100
AcDbDictionary
281
     1
  0
DICTIONARY
  5
17
102
{ACAD_REACTORS
330
C
102
}
330
C
100
AcDbDictionary
281
     1
  3
Standard
350
18
  0
DICTIONARY
  5
19
102
{ACAD_REACTORS
330
C
102
}
330
C
100
AcDbDictionary
281
     1
  0
ACDBDICTIONARYWDFLT
  5
E
102
{ACAD_REACTORS
330
C
102
}
330
C
100
AcDbDictionary
281
     1
  3
Normal
350
F
100
AcDbDictionaryWithDefault
340
F
  0
DICTIONARY
  5
2A
102
{ACAD_REACTORS
330
C
102
}
330
C
100
AcDbDictionary
281
     1
  3
2dWireframe
350
2F
  3
3D Hidden
350
31
  3
3dWireframe
350
30
  3
Basic
350
32
  3
Brighten
350
36
  3
ColorChange
350
3A
  3
Conceptual
350
34
  3
Dim
350
35
  3
Facepattern
350
39
  3
Flat
350
2B
  3
FlatWithEdges
350
2C
  3
Gouraud
350
2D
  3
GouraudWithEdges
350
2E
  3
Linepattern
350
38
  3
Realistic
350
33
  3
Thicken
350
37
  0
DICTIONARY
  5
77E
102
{ACAD_REACTORS
330
C
102
}
330
C
100
AcDbDictionary
281
     1
  3
DIMASSOC
350
781
  3
HIDETEXT
350
782
  0
LAYOUT
  5
1E
102
{ACAD_REACTORS
330
1A
102
}
330
1A
100
AcDbPlotSettings
  1

  2
none_device
  4

  6

 40
0.0
 41
0.0
 42
0.0
 43
0.0
 44
0.0
 45
0.0
 46
0.0
 47
0.0
 48
0.0
 49
0.0
140
0.0
141
0.0
142
1.0
143
1.0
 70
   688
 72
     0
 73
     0
 74
     5
  7

 75
    16
147
1.0
148
0.0
149
0.0
100
AcDbLayout
  1
Layout1
 70
     1
 71
     1
 10
0.0
 20
0.0
 11
12.0
 21
9.0
 12
0.0
 22
0.0
 32
0.0
 14
1.00000000000000E+20
 24
1.00000000000000E+20
 34
1.00000000000000E+20
 15
-1.00000000000000E+20
 25
-1.00000000000000E+20
 35
-1.00000000000000E+20
146
0.0
 13
0.0
 23
0.0
 33
0.0
 16
1.0
 26
0.0
 36
0.0
 17
0.0
 27
1.0
 37
0.0
 76
     0
330
1B
  0
LAYOUT
  5
26
102
{ACAD_REACTORS
330
1A
102
}
330
1A
100
AcDbPlotSettings
  1

  2
none_device
  4

  6

 40
0.0
 41
0.0
 42
0.0
 43
0.0
 44
0.0
 45
0.0
 46
0.0
 47
0.0
 48
0.0
 49
0.0
140
0.0
141
0.0
142
1.0
143
1.0
 70
   688
 72
     0
 73
     0
 74
     5
  7

 75
    16
147
1.0
148
0.0
149
0.0
100
AcDbLayout
  1
Layout2
 70
     1
 71
     2
 10
0.0
 20
0.0
 11
0.0
 21
0.0
 12
0.0
 22
0.0
 32
0.0
 14
0.0
 24
0.0
 34
0.0
 15
0.0
 25
0.0
 35
0.0
146
0.0
 13
0.0
 23
0.0
 33
0.0
 16
1.0
 26
0.0
 36
0.0
 17
0.0
 27
1.0
 37
0.0
 76
     0
330
23
  0
LAYOUT
  5
22
102
{ACAD_REACTORS
330
1A
102
}
330
1A
100
AcDbPlotSettings
  1

  2
none_device
  4

  6

 40
0.0
 41
0.0
 42
0.0
 43
0.0
 44
0.0
 45
0.0
 46
0.0
 47
0.0
 48
0.0
 49
0.0
140
0.0
141
0.0
142
1.0
143
1.0
 70
  1712
 72
     0
 73
     0
 74
     0
  7

 75
     0
147
1.0
148
0.0
149
0.0
100
AcDbLayout
  1
Model
 70
     1
 71
     0
 10
0.0
 20
0.0
 11
12.0
 21
9.0
 12
0.0
 22
0.0
 32
0.0
 14
0.0
 24
0.0
 34
0.0
 15
296.9999999999999
 25
210.0
 35
0.0
146
0.0
 13
0.0
 23
0.0
 33
0.0
 16
1.0
 26
0.0
 36
0.0
 17
0.0
 27
1.0
 37
0.0
 76
     0
330
1F
331
29
  0
MATERIAL
  5
3D
102
{ACAD_REACTORS
330
3B
102
}
102
{ACAD_XDICTIONARY
360
7A5
102
}
330
3B
100
AcDbMaterial
  1
ByBlock
  0
MATERIAL
  5
3C
102
{ACAD_REACTORS
330
3B
102
}
102
{ACAD_XDICTIONARY
360
7A3
102
}
330
3B
100
AcDbMaterial
  1
ByLayer
  0
MATERIAL
  5
3E
102
{ACAD_REACTORS
330
3B
102
}
102
{ACAD_XDICTIONARY
360
7A7
102
}
330
3B
100
AcDbMaterial
  1
Global
  0
MLINESTYLE
  5
18
102
{ACAD_REACTORS
330
17
102
}
330
17
100
AcDbMlineStyle
  2
Standard
 70
     0
  3

 62
   256
 51
90.0
 52
90.0
 71
     2
 49
0.5
 62
   256
  6
BYLAYER
 49
-0.5
 62
   256
  6
BYLAYER
  0
ACDBPLACEHOLDER
  5
F
102
{ACAD_REACTORS
330
E
102
}
330
E
  0
VISUALSTYLE
  5
2F
102
{ACAD_REACTORS
330
2A
102
}
102
{ACAD_XDICTIONARY
360
78B
102
}
330
2A
100
AcDbVisualStyle
  2
2dWireframe
 70
     4
 71
     0
 72
     2
 73
     0
 90
        0
 40
-0.6
 41
-30.0
 62
     5
 63
     7
 74
     1
 91
        4
 64
     7
 65
   257
 75
     1
175
     1
 42
1.0
 92
        0
 66
   257
 43
1.0
 76
     1
 77
     6
 78
     2
 67
     7
 79
     5
170
     0
171
     0
290
     0
174
     0
 93
        1
 44
0.0
173
     0
291
     0
 45
0.0
1001
ACAD
1000
AcDbSavedByObjectVersion
1070
     0
  0
VISUALSTYLE
  5
31
102
{ACAD_REACTORS
330
2A
102
}
102
{ACAD_XDICTIONARY
360
78F
102
}
330
2A
100
AcDbVisualStyle
  2
3D Hidden
 70
     6
 71
     1
 72
     2
 73
     2
 90
        0
 40
-0.6
 41
-30.0
 62
     5
 63
     7
 74
     2
 91
        2
 64
     7
 65
   257
 75
     2
175
     1
 42
40.0
 92
        0
 66
   257
 43
1.0
 76
     1
 77
     6
 78
     2
 67
     7
 79
     3
170
     0
171
     0
290
     0
174
     0
 93
        1
 44
0.0
173
     0
291
     0
 45
0.0
1001
ACAD
1000
AcDbSavedByObjectVersion
1070
     0
  0
VISUALSTYLE
  5
30
102
{ACAD_REACTORS
330
2A
102
}
102
{ACAD_XDICTIONARY
360
78D
102
}
330
2A
100
AcDbVisualStyle
  2
3dWireframe
 70
     5
 71
     0
 72
     2
 73
     0
 90
        0
 40
-0.6
 41
-30.0
 62
     5
 63
     7
 74
     1
 91
        4
 64
     7
 65
   257
 75
     1
175
     1
 42
1.0
 92
        0
 66
   257
 43
1.0
 76
     1
 77
     6
 78
     2
 67
     7
 79
     5
170
     0
171
     0
290
     0
174
     0
 93
        1
 44
0.0
173
     0
291
     0
 45
0.0
1001
ACAD
1000
AcDbSavedByObjectVersion
1070
     0
  0
VISUALSTYLE
  5
32
102
{ACAD_REACTORS
330
2A
102
}
102
{ACAD_XDICTIONARY
360
791
102
}
330
2A
100
AcDbVisualStyle
  2
Basic
 70
     7
 71
     1
 72
     0
 73
     1
 90
        0
 40
-0.6
 41
-30.0
 62
     5
 63
     7
 74
     0
 91
        4
 64
     7
 65
   257
 75
     1
175
     1
 42
1.0
 92
        8
 66
     7
 43
1.0
 76
     1
 77
     6
 78
     2
 67
     7
 79
     5
170
     0
171
     0
290
     0
174
     0
 93
        1
 44
0.0
173
     0
291
     1
 45
0.0
1001
ACAD
1000
AcDbSavedByObjectVersion
1070
     0
  0
VISUALSTYLE
  5
36
102
{ACAD_REACTORS
330
2A
102
}
102
{ACAD_XDICTIONARY
360
799
102
}
330
2A
100
AcDbVisualStyle
  2
Brighten
 70
    12
 71
     2
 72
     2
 73
     0
 90
        0
 40
-0.6
 41
-30.0
 62
     5
 63
     7
 74
     1
 91
        4
 64
     7
 65
   257
 75
     1
175
     1
 42
1.0
 92
        8
 66
     7
 43
1.0
 76
     1
 77
     6
 78
     2
 67
     7
 79
     5
170
     0
171
     0
290
     0
174
     0
 93
        1
 44
50.0
173
     0
291
     1
 45
0.0
1001
ACAD
1000
AcDbSavedByObjectVersion
1070
     0
  0
VISUALSTYLE
  5
3A
102
{ACAD_REACTORS
330
2A
102
}
102
{ACAD_XDICTIONARY
360
7A1
102
}
330
2A
100
AcDbVisualStyle
  2
ColorChange
 70
    16
 71
     2
 72
     2
 73
     3
 90
        0
 40
-0.6
 41
-30.0
 62
     5
 63
     8
 74
     1
 91
        4
 64
     7
 65
   257
 75
     1
175
     1
 42
1.0
 92
        8
 66
     8
 43
1.0
 76
     1
 77
     6
 78
     2
 67
     7
 79
     5
170
     0
171
     0
290
     0
174
     0
 93
        1
 44
0.0
173
     0
291
     1
 45
0.0
1001
ACAD
1000
AcDbSavedByObjectVersion
1070
     0
  0
VISUALSTYLE
  5
34
102
{ACAD_REACTORS
330
2A
102
}
102
{ACAD_XDICTIONARY
360
795
102
}
330
2A
100
AcDbVisualStyle
  2
Conceptual
 70
     9
 71
     3
 72
     2
 73
     0
 90
        0
 40
-0.6
 41
-30.0
 62
     5
 63
     7
 74
     2
 91
        2
 64
     7
 65
   257
 75
     1
175
     1
 42
40.0
 92
        8
 66
     7
 43
1.0
 76
     1
 77
     6
 78
     2
 67
     7
 79
     3
170
     0
171
     0
290
     0
174
     0
 93
        1
 44
0.0
173
     0
291
     0
 45
0.0
1001
ACAD
1000
AcDbSavedByObjectVersion
1070
     0
  0
VISUALSTYLE
  5
35
102
{ACAD_REACTORS
330
2A
102
}
102
{ACAD_XDICTIONARY
360
797
102
}
330
2A
100
AcDbVisualStyle
  2
Dim
 70
    11
 71
     2
 72
     2
 73
     0
 90
        0
 40
-0.6
 41
-30.0
 62
     5
 63
     7
 74
     1
 91
        4
 64
     7
 65
   257
 75
     1
175
     1
 42
1.0
 92
        8
 66
     7
 43
1.0
 76
     1
 77
     6
 78
     2
 67
     7
 79
     5
170
     0
171
     0
290
     0
174
     0
 93
        1
 44
-50.0
173
     0
291
     1
 45
0.0
1001
ACAD
1000
AcDbSavedByObjectVersion
1070
     0
  0
VISUALSTYLE
  5
39
102
{ACAD_REACTORS
330
2A
102
}
102
{ACAD_XDICTIONARY
360
79F
102
}
330
2A
100
AcDbVisualStyle
  2
Facepattern
 70
    15
 71
     2
 72
     2
 73
     0
 90
        0
 40
-0.6
 41
-30.0
 62
     5
 63
     7
 74
     1
 91
        4
 64
     7
 65
   257
 75
     1
175
     1
 42
1.0
 92
        8
 66
     7
 43
1.0
 76
     1
 77
     6
 78
     2
 67
     7
 79
     5
170
     0
171
     0
290
     0
174
     0
 93
        1
 44
0.0
173
     0
291
     1
 45
0.0
1001
ACAD
1000
AcDbSavedByObjectVersion
1070
     0
  0
VISUALSTYLE
  5
2B
102
{ACAD_REACTORS
330
2A
102
}
102
{ACAD_XDICTIONARY
360
783
102
}
330
2A
100
AcDbVisualStyle
  2
Flat
 70
     0
 71
     2
 72
     1
 73
     1
 90
        2
 40
-0.6
 41
30.0
 62
     5
 63
     7
 74
     0
 91
        4
 64
     7
 65
   257
 75
     1
175
     1
 42
1.0
 92
        8
 66
     7
 43
1.0
 76
     1
 77
     6
 78
     2
 67
     7
 79
     5
170
     0
171
     0
290
     0
174
     0
 93
       13
 44
0.0
173
     0
291
     1
 45
0.0
1001
ACAD
1000
AcDbSavedByObjectVersion
1070
     0
  0
VISUALSTYLE
  5
2C
102
{ACAD_REACTORS
330
2A
102
}
102
{ACAD_XDICTIONARY
360
785
102
}
330
2A
100
AcDbVisualStyle
  2
FlatWithEdges
 70
     1
 71
     2
 72
     1
 73
     1
 90
        2
 40
-0.6
 41
30.0
 62
     5
 63
     7
 74
     1
 91
        4
 64
     7
 65
   257
 75
     1
175
     1
 42
1.0
 92
        0
 66
   257
 43
1.0
 76
     1
 77
     6
 78
     2
 67
     7
 79
     5
170
     0
171
     0
290
     0
174
     0
 93
       13
 44
0.0
173
     0
291
     1
 45
0.0
1001
ACAD
1000
AcDbSavedByObjectVersion
1070
     0
  0
VISUALSTYLE
  5
2D
102
{ACAD_REACTORS
330
2A
102
}
102
{ACAD_XDICTIONARY
360
787
102
}
330
2A
100
AcDbVisualStyle
  2
Gouraud
 70
     2
 71
     2
 72
     2
 73
     1
 90
        2
 40
-0.6
 41
30.0
 62
     5
 63
     7
 74
     0
 91
        4
 64
     7
 65
   257
 75
     1
175
     1
 42
1.0
 92
        0
 66
     7
 43
1.0
 76
     1
 77
     6
 78
     2
 67
     7
 79
     5
170
     0
171
     0
290
     0
174
     0
 93
       13
 44
0.0
173
     0
291
     1
 45
0.0
1001
ACAD
1000
AcDbSavedByObjectVersion
1070
     0
  0
VISUALSTYLE
  5
2E
102
{ACAD_REACTORS
330
2A
102
}
102
{ACAD_XDICTIONARY
360
789
102
}
330
2A
100
AcDbVisualStyle
  2
GouraudWithEdges
 70
     3
 71
     2
 72
     2
 73
     1
 90
        2
 40
-0.6
 41
30.0
 62
     5
 63
     7
 74
     1
 91
        4
 64
     7
 65
   257
 75
     1
175
     1
 42
1.0
 92
        0
 66
   257
 43
1.0
 76
     1
 77
     6
 78
     2
 67
     7
 79
     5
170
     0
171
     0
290
     0
174
     0
 93
       13
 44
0.0
173
     0
291
     1
 45
0.0
1001
ACAD
1000
AcDbSavedByObjectVersion
1070
     0
  0
VISUALSTYLE
  5
38
102
{ACAD_REACTORS
330
2A
102
}
102
{ACAD_XDICTIONARY
360
79D
102
}
330
2A
100
AcDbVisualStyle
  2
Linepattern
 70
    14
 71
     2
 72
     2
 73
     0
 90
        0
 40
-0.6
 41
-30.0
 62
     5
 63
     7
 74
     1
 91
        4
 64
     7
 65
   257
 75
     7
175
     7
 42
1.0
 92
        8
 66
     7
 43
1.0
 76
     1
 77
     6
 78
     2
 67
     7
 79
     5
170
     0
171
     0
290
     0
174
     0
 93
        1
 44
0.0
173
     0
291
     1
 45
0.0
1001
ACAD
1000
AcDbSavedByObjectVersion
1070
     0
  0
VISUALSTYLE
  5
33
102
{ACAD_REACTORS
330
2A
102
}
102
{ACAD_XDICTIONARY
360
793
102
}
330
2A
100
AcDbVisualStyle
  2
Realistic
 70
     8
 71
     2
 72
     2
 73
     0
 90
        0
 40
-0.6
 41
-30.0
 62
     5
 63
     7
 74
     1
 91
        0
 64
     7
 65
   257
 75
     1
175
     1
 42
1.0
 92
        8
 66
     8
 43
1.0
 76
     1
 77
     6
 78
     2
 67
     7
 79
     5
170
     0
171
     0
290
     0
174
     0
 93
       13
 44
0.0
173
     0
291
     0
 45
0.0
1001
ACAD
1000
AcDbSavedByObjectVersion
1070
     0
  0
VISUALSTYLE
  5
37
102
{ACAD_REACTORS
330
2A
102
}
102
{ACAD_XDICTIONARY
360
79B
102
}
330
2A
100
AcDbVisualStyle
  2
Thicken
 70
    13
 71
     2
 72
     2
 73
     0
 90
        0
 40
-0.6
 41
-30.0
 62
     5
 63
     7
 74
     1
 91
        4
 64
     7
 65
   257
 75
     1
175
     1
 42
1.0
 92
       12
 66
     7
 43
1.0
 76
     1
 77
     6
 78
     2
 67
     7
 79
     5
170
     0
171
     0
290
     0
174
     0
 93
        1
 44
0.0
173
     0
291
     1
 45
0.0
1001
ACAD
1000
AcDbSavedByObjectVersion
1070
     0
  0
DICTIONARYVAR
  5
781
102
{ACAD_REACTORS
330
77E
102
}
330
77E
100
DictionaryVariables
280
     0
  1
2
  0
DICTIONARYVAR
  5
782
102
{ACAD_REACTORS
330
77E
102
}
330
77E
100
DictionaryVariables
280
     0
  1
1
  0
DICTIONARY
  5
7A5
330
3D
100
AcDbDictionary
280
     1
281
     1
  3
ACAD_XREC_ROUNDTRIP
360
7A6
  0
DICTIONARY
  5
7A3
330
3C
100
AcDbDictionary
280
     1
281
     1
  3
ACAD_XREC_ROUNDTRIP
360
7A4
  0
DICTIONARY
  5
7A7
330
3E
100
AcDbDictionary
280
     1
281
     1
  3
ACAD_XREC_ROUNDTRIP
360
7A8
  0
DICTIONARY
  5
78B
330
2F
100
AcDbDictionary
280
     1
281
     1
  3
ACAD_XREC_ROUNDTRIP
360
78C
  0
DICTIONARY
  5
78F
330
31
100
AcDbDictionary
280
     1
281
     1
  3
ACAD_XREC_ROUNDTRIP
360
790
  0
DICTIONARY
  5
78D
330
30
100
AcDbDictionary
280
     1
281
     1
  3
ACAD_XREC_ROUNDTRIP
360
78E
  0
DICTIONARY
  5
791
330
32
100
AcDbDictionary
280
     1
281
     1
  3
ACAD_XREC_ROUNDTRIP
360
792
  0
DICTIONARY
  5
799
330
36
100
AcDbDictionary
280
     1
281
     1
  3
ACAD_XREC_ROUNDTRIP
360
79A
  0
DICTIONARY
  5
7A1
330
3A
100
AcDbDictionary
280
     1
281
     1
  3
ACAD_XREC_ROUNDTRIP
360
7A2
  0
DICTIONARY
  5
795
330
34
100
AcDbDictionary
280
     1
281
     1
  3
ACAD_XREC_ROUNDTRIP
360
796
  0
DICTIONARY
  5
797
330
35
100
AcDbDictionary
280
     1
281
     1
  3
ACAD_XREC_ROUNDTRIP
360
798
  0
DICTIONARY
  5
79F
330
39
100
AcDbDictionary
280
     1
281
     1
  3
ACAD_XREC_ROUNDTRIP
360
7A0
  0
DICTIONARY
  5
783
330
2B
100
AcDbDictionary
280
     1
281
     1
  3
ACAD_XREC_ROUNDTRIP
360
784
  0
DICTIONARY
  5
785
330
2C
100
AcDbDictionary
280
     1
281
     1
  3
ACAD_XREC_ROUNDTRIP
360
786
  0
DICTIONARY
  5
787
330
2D
100
AcDbDictionary
280
     1
281
     1
  3
ACAD_XREC_ROUNDTRIP
360
788
  0
DICTIONARY
  5
789
330
2E
100
AcDbDictionary
280
     1
281
     1
  3
ACAD_XREC_ROUNDTRIP
360
78A
  0
DICTIONARY
  5
79D
330
38
100
AcDbDictionary
280
     1
281
     1
  3
ACAD_XREC_ROUNDTRIP
360
79E
  0
DICTIONARY
  5
793
330
33
100
AcDbDictionary
280
     1
281
     1
  3
ACAD_XREC_ROUNDTRIP
360
794
  0
DICTIONARY
  5
79B
330
37
100
AcDbDictionary
280
     1
281
     1
  3
ACAD_XREC_ROUNDTRIP
360
79C
  0
XRECORD
  5
7A6
102
{ACAD_REACTORS
330
7A5
102
}
330
7A5
100
AcDbXrecord
280
     1
102
MATERIAL
148
0.0
149
0.0
149
0.0
 93
        0
 94
      127
282
     0
 72
     1
 77
     1
171
     1
175
     1
179
     1
273
     0
  0
XRECORD
  5
7A4
102
{ACAD_REACTORS
330
7A3
102
}
330
7A3
100
AcDbXrecord
280
     1
102
MATERIAL
148
0.0
149
0.0
149
0.0
 93
        0
 94
      127
282
     0
 72
     1
 77
     1
171
     1
175
     1
179
     1
273
     0
  0
XRECORD
  5
7A8
102
{ACAD_REACTORS
330
7A7
102
}
330
7A7
100
AcDbXrecord
280
     1
102
MATERIAL
148
0.0
149
0.0
149
0.0
 93
        0
 94
      127
282
     0
 72
     1
 77
     1
171
     1
175
     1
179
     1
273
     0
  0
XRECORD
  5
78C
102
{ACAD_REACTORS
330
78B
102
}
330
78B
100
AcDbXrecord
280
     1
102
RTVSPropertyOp0
 70
     1
102
RTVSPropertyOp1
 70
     1
102
RTVSPropertyOp2
 70
     1
102
RTVSPropertyOp3
 70
     1
102
RTVSPropertyOp4
 70
     1
102
RTVSPropertyOp5
 70
     1
102
RTVSPropertyOp6
 70
     1
102
RTVSPropertyOp7
 70
     1
102
RTVSPropertyOp8
 70
     1
102
RTVSPropertyOp9
 70
     1
102
RTVSPropertyOp10
 70
     1
102
RTVSPropertyOp11
 70
     1
102
RTVSPropertyOp12
 70
     1
102
RTVSPropertyOp13
 70
     1
102
RTVSPropertyOp14
 70
     1
102
RTVSPropertyOp15
 70
     1
102
RTVSPropertyOp16
 70
     1
102
RTVSPropertyOp17
 70
     1
102
RTVSPropertyOp18
 70
     1
102
RTVSPropertyOp19
 70
     1
102
RTVSPropertyOp20
 70
     1
102
RTVSPropertyOp21
 70
     1
102
RTVSPropertyOp22
 70
     1
102
RTVSPropertyOp23
 70
     1
102
RTVSPropertyOp24
 70
     1
102
RTVSPropertyOp25
 70
     1
102
RTVSPropertyOp26
 70
     1
102
RTVSPropertyOp27
 70
     1
102
RTVSPropertyOp28
 70
     1
102
RTVSPropertyOp29
 70
     1
102
RTVSPropertyOp30
 70
     1
102
RTVSPropertyOp31
 70
     1
102
RTVSPropertyOp32
 70
     1
  0
XRECORD
  5
790
102
{ACAD_REACTORS
330
78F
102
}
330
78F
100
AcDbXrecord
280
     1
102
RTVSPropertyOp0
 70
     1
102
RTVSPropertyOp1
 70
     1
102
RTVSPropertyOp2
 70
     1
102
RTVSPropertyOp3
 70
     1
102
RTVSPropertyOp4
 70
     1
102
RTVSPropertyOp5
 70
     1
102
RTVSPropertyOp6
 70
     1
102
RTVSPropertyOp7
 70
     1
102
RTVSPropertyOp8
 70
     1
102
RTVSPropertyOp9
 70
     1
102
RTVSPropertyOp10
 70
     1
102
RTVSPropertyOp11
 70
     1
102
RTVSPropertyOp12
 70
     1
102
RTVSPropertyOp13
 70
     1
102
RTVSPropertyOp14
 70
     1
102
RTVSPropertyOp15
 70
     1
102
RTVSPropertyOp16
 70
     1
102
RTVSPropertyOp17
 70
     1
102
RTVSPropertyOp18
 70
     1
102
RTVSPropertyOp19
 70
     1
102
RTVSPropertyOp20
 70
     1
102
RTVSPropertyOp21
 70
     1
102
RTVSPropertyOp22
 70
     1
102
RTVSPropertyOp23
 70
     1
102
RTVSPropertyOp24
 70
     1
102
RTVSPropertyOp25
 70
     1
102
RTVSPropertyOp26
 70
     1
102
RTVSPropertyOp27
 70
     1
102
RTVSPropertyOp28
 70
     1
102
RTVSPropertyOp29
 70
     1
102
RTVSPropertyOp30
 70
     1
102
RTVSPropertyOp31
 70
     1
102
RTVSPropertyOp32
 70
     1
  0
XRECORD
  5
78E
102
{ACAD_REACTORS
330
78D
102
}
330
78D
100
AcDbXrecord
280
     1
102
RTVSPropertyOp0
 70
     1
102
RTVSPropertyOp1
 70
     1
102
RTVSPropertyOp2
 70
     1
102
RTVSPropertyOp3
 70
     1
102
RTVSPropertyOp4
 70
     1
102
RTVSPropertyOp5
 70
     1
102
RTVSPropertyOp6
 70
     1
102
RTVSPropertyOp7
 70
     1
102
RTVSPropertyOp8
 70
     1
102
RTVSPropertyOp9
 70
     1
102
RTVSPropertyOp10
 70
     1
102
RTVSPropertyOp11
 70
     1
102
RTVSPropertyOp12
 70
     1
102
RTVSPropertyOp13
 70
     1
102
RTVSPropertyOp14
 70
     1
102
RTVSPropertyOp15
 70
     1
102
RTVSPropertyOp16
 70
     1
102
RTVSPropertyOp17
 70
     1
102
RTVSPropertyOp18
 70
     1
102
RTVSPropertyOp19
 70
     1
102
RTVSPropertyOp20
 70
     1
102
RTVSPropertyOp21
 70
     1
102
RTVSPropertyOp22
 70
     1
102
RTVSPropertyOp23
 70
     1
102
RTVSPropertyOp24
 70
     1
102
RTVSPropertyOp25
 70
     1
102
RTVSPropertyOp26
 70
     1
102
RTVSPropertyOp27
 70
     1
102
RTVSPropertyOp28
 70
     1
102
RTVSPropertyOp29
 70
     1
102
RTVSPropertyOp30
 70
     1
102
RTVSPropertyOp31
 70
     1
102
RTVSPropertyOp32
 70
     1
  0
XRECORD
  5
792
102
{ACAD_REACTORS
330
791
102
}
330
791
100
AcDbXrecord
280
     1
102
RTVSPropertyOp0
 70
     1
102
RTVSPropertyOp1
 70
     1
102
RTVSPropertyOp2
 70
     1
102
RTVSPropertyOp3
 70
     1
102
RTVSPropertyOp4
 70
     1
102
RTVSPropertyOp5
 70
     1
102
RTVSPropertyOp6
 70
     1
102
RTVSPropertyOp7
 70
     1
102
RTVSPropertyOp8
 70
     1
102
RTVSPropertyOp9
 70
     1
102
RTVSPropertyOp10
 70
     1
102
RTVSPropertyOp11
 70
     1
102
RTVSPropertyOp12
 70
     1
102
RTVSPropertyOp13
 70
     1
102
RTVSPropertyOp14
 70
     1
102
RTVSPropertyOp15
 70
     1
102
RTVSPropertyOp16
 70
     1
102
RTVSPropertyOp17
 70
     1
102
RTVSPropertyOp18
 70
     1
102
RTVSPropertyOp19
 70
     1
102
RTVSPropertyOp20
 70
     1
102
RTVSPropertyOp21
 70
     1
102
RTVSPropertyOp22
 70
     1
102
RTVSPropertyOp23
 70
     1
102
RTVSPropertyOp24
 70
     1
102
RTVSPropertyOp25
 70
     1
102
RTVSPropertyOp26
 70
     1
102
RTVSPropertyOp27
 70
     1
102
RTVSPropertyOp28
 70
     1
102
RTVSPropertyOp29
 70
     1
102
RTVSPropertyOp30
 70
     1
102
RTVSPropertyOp31
 70
     1
102
RTVSPropertyOp32
 70
     1
  0
XRECORD
  5
79A
102
{ACAD_REACTORS
330
799
102
}
330
799
100
AcDbXrecord
280
     1
102
RTVSPropertyOp0
 70
     1
102
RTVSPropertyOp1
 70
     1
102
RTVSPropertyOp2
 70
     1
102
RTVSPropertyOp3
 70
     1
102
RTVSPropertyOp4
 70
     1
102
RTVSPropertyOp5
 70
     1
102
RTVSPropertyOp6
 70
     1
102
RTVSPropertyOp7
 70
     1
102
RTVSPropertyOp8
 70
     1
102
RTVSPropertyOp9
 70
     1
102
RTVSPropertyOp10
 70
     1
102
RTVSPropertyOp11
 70
     1
102
RTVSPropertyOp12
 70
     1
102
RTVSPropertyOp13
 70
     1
102
RTVSPropertyOp14
 70
     1
102
RTVSPropertyOp15
 70
     1
102
RTVSPropertyOp16
 70
     1
102
RTVSPropertyOp17
 70
     1
102
RTVSPropertyOp18
 70
     1
102
RTVSPropertyOp19
 70
     1
102
RTVSPropertyOp20
 70
     1
102
RTVSPropertyOp21
 70
     1
102
RTVSPropertyOp22
 70
     1
102
RTVSPropertyOp23
 70
     1
102
RTVSPropertyOp24
 70
     1
102
RTVSPropertyOp25
 70
     1
102
RTVSPropertyOp26
 70
     1
102
RTVSPropertyOp27
 70
     1
102
RTVSPropertyOp28
 70
     1
102
RTVSPropertyOp29
 70
     1
102
RTVSPropertyOp30
 70
     1
102
RTVSPropertyOp31
 70
     1
102
RTVSPropertyOp32
 70
     1
  0
XRECORD
  5
7A2
102
{ACAD_REACTORS
330
7A1
102
}
330
7A1
100
AcDbXrecord
280
     1
102
RTVSPropertyOp0
 70
     1
102
RTVSPropertyOp1
 70
     1
102
RTVSPropertyOp2
 70
     1
102
RTVSPropertyOp3
 70
     1
102
RTVSPropertyOp4
 70
     1
102
RTVSPropertyOp5
 70
     1
102
RTVSPropertyOp6
 70
     1
102
RTVSPropertyOp7
 70
     1
102
RTVSPropertyOp8
 70
     1
102
RTVSPropertyOp9
 70
     1
102
RTVSPropertyOp10
 70
     1
102
RTVSPropertyOp11
 70
     1
102
RTVSPropertyOp12
 70
     1
102
RTVSPropertyOp13
 70
     1
102
RTVSPropertyOp14
 70
     1
102
RTVSPropertyOp15
 70
     1
102
RTVSPropertyOp16
 70
     1
102
RTVSPropertyOp17
 70
     1
102
RTVSPropertyOp18
 70
     1
102
RTVSPropertyOp19
 70
     1
102
RTVSPropertyOp20
 70
     1
102
RTVSPropertyOp21
 70
     1
102
RTVSPropertyOp22
 70
     1
102
RTVSPropertyOp23
 70
     1
102
RTVSPropertyOp24
 70
     1
102
RTVSPropertyOp25
 70
     1
102
RTVSPropertyOp26
 70
     1
102
RTVSPropertyOp27
 70
     1
102
RTVSPropertyOp28
 70
     1
102
RTVSPropertyOp29
 70
     1
102
RTVSPropertyOp30
 70
     1
102
RTVSPropertyOp31
 70
     1
102
RTVSPropertyOp32
 70
     1
  0
XRECORD
  5
796
102
{ACAD_REACTORS
330
795
102
}
330
795
100
AcDbXrecord
280
     1
102
RTVSPropertyOp0
 70
     1
102
RTVSPropertyOp1
 70
     1
102
RTVSPropertyOp2
 70
     1
102
RTVSPropertyOp3
 70
     1
102
RTVSPropertyOp4
 70
     1
102
RTVSPropertyOp5
 70
     1
102
RTVSPropertyOp6
 70
     1
102
RTVSPropertyOp7
 70
     1
102
RTVSPropertyOp8
 70
     1
102
RTVSPropertyOp9
 70
     1
102
RTVSPropertyOp10
 70
     1
102
RTVSPropertyOp11
 70
     1
102
RTVSPropertyOp12
 70
     1
102
RTVSPropertyOp13
 70
     1
102
RTVSPropertyOp14
 70
     1
102
RTVSPropertyOp15
 70
     1
102
RTVSPropertyOp16
 70
     1
102
RTVSPropertyOp17
 70
     1
102
RTVSPropertyOp18
 70
     1
102
RTVSPropertyOp19
 70
     1
102
RTVSPropertyOp20
 70
     1
102
RTVSPropertyOp21
 70
     1
102
RTVSPropertyOp22
 70
     1
102
RTVSPropertyOp23
 70
     1
102
RTVSPropertyOp24
 70
     1
102
RTVSPropertyOp25
 70
     1
102
RTVSPropertyOp26
 70
     1
102
RTVSPropertyOp27
 70
     1
102
RTVSPropertyOp28
 70
     1
102
RTVSPropertyOp29
 70
     1
102
RTVSPropertyOp30
 70
     1
102
RTVSPropertyOp31
 70
     1
102
RTVSPropertyOp32
 70
     1
  0
XRECORD
  5
798
102
{ACAD_REACTORS
330
797
102
}
330
797
100
AcDbXrecord
280
     1
102
RTVSPropertyOp0
 70
     1
102
RTVSPropertyOp1
 70
     1
102
RTVSPropertyOp2
 70
     1
102
RTVSPropertyOp3
 70
     1
102
RTVSPropertyOp4
 70
     1
102
RTVSPropertyOp5
 70
     1
102
RTVSPropertyOp6
 70
     1
102
RTVSPropertyOp7
 70
     1
102
RTVSPropertyOp8
 70
     1
102
RTVSPropertyOp9
 70
     1
102
RTVSPropertyOp10
 70
     1
102
RTVSPropertyOp11
 70
     1
102
RTVSPropertyOp12
 70
     1
102
RTVSPropertyOp13
 70
     1
102
RTVSPropertyOp14
 70
     1
102
RTVSPropertyOp15
 70
     1
102
RTVSPropertyOp16
 70
     1
102
RTVSPropertyOp17
 70
     1
102
RTVSPropertyOp18
 70
     1
102
RTVSPropertyOp19
 70
     1
102
RTVSPropertyOp20
 70
     1
102
RTVSPropertyOp21
 70
     1
102
RTVSPropertyOp22
 70
     1
102
RTVSPropertyOp23
 70
     1
102
RTVSPropertyOp24
 70
     1
102
RTVSPropertyOp25
 70
     1
102
RTVSPropertyOp26
 70
     1
102
RTVSPropertyOp27
 70
     1
102
RTVSPropertyOp28
 70
     1
102
RTVSPropertyOp29
 70
     1
102
RTVSPropertyOp30
 70
     1
102
RTVSPropertyOp31
 70
     1
102
RTVSPropertyOp32
 70
     1
  0
XRECORD
  5
7A0
102
{ACAD_REACTORS
330
79F
102
}
330
79F
100
AcDbXrecord
280
     1
102
RTVSPropertyOp0
 70
     1
102
RTVSPropertyOp1
 70
     1
102
RTVSPropertyOp2
 70
     1
102
RTVSPropertyOp3
 70
     1
102
RTVSPropertyOp4
 70
     1
102
RTVSPropertyOp5
 70
     1
102
RTVSPropertyOp6
 70
     1
102
RTVSPropertyOp7
 70
     1
102
RTVSPropertyOp8
 70
     1
102
RTVSPropertyOp9
 70
     1
102
RTVSPropertyOp10
 70
     1
102
RTVSPropertyOp11
 70
     1
102
RTVSPropertyOp12
 70
     1
102
RTVSPropertyOp13
 70
     1
102
RTVSPropertyOp14
 70
     1
102
RTVSPropertyOp15
 70
     1
102
RTVSPropertyOp16
 70
     1
102
RTVSPropertyOp17
 70
     1
102
RTVSPropertyOp18
 70
     1
102
RTVSPropertyOp19
 70
     1
102
RTVSPropertyOp20
 70
     1
102
RTVSPropertyOp21
 70
     1
102
RTVSPropertyOp22
 70
     1
102
RTVSPropertyOp23
 70
     1
102
RTVSPropertyOp24
 70
     1
102
RTVSPropertyOp25
 70
     1
102
RTVSPropertyOp26
 70
     1
102
RTVSPropertyOp27
 70
     1
102
RTVSPropertyOp28
 70
     1
102
RTVSPropertyOp29
 70
     1
102
RTVSPropertyOp30
 70
     1
102
RTVSPropertyOp31
 70
     1
102
RTVSPropertyOp32
 70
     1
  0
XRECORD
  5
784
102
{ACAD_REACTORS
330
783
102
}
330
783
100
AcDbXrecord
280
     1
102
RTVSPropertyOp0
 70
     1
102
RTVSPropertyOp1
 70
     1
102
RTVSPropertyOp2
 70
     1
102
RTVSPropertyOp3
 70
     1
102
RTVSPropertyOp4
 70
     1
102
RTVSPropertyOp5
 70
     1
102
RTVSPropertyOp6
 70
     1
102
RTVSPropertyOp7
 70
     1
102
RTVSPropertyOp8
 70
     1
102
RTVSPropertyOp9
 70
     1
102
RTVSPropertyOp10
 70
     1
102
RTVSPropertyOp11
 70
     1
102
RTVSPropertyOp12
 70
     1
102
RTVSPropertyOp13
 70
     1
102
RTVSPropertyOp14
 70
     1
102
RTVSPropertyOp15
 70
     1
102
RTVSPropertyOp16
 70
     1
102
RTVSPropertyOp17
 70
     1
102
RTVSPropertyOp18
 70
     1
102
RTVSPropertyOp19
 70
     1
102
RTVSPropertyOp20
 70
     1
102
RTVSPropertyOp21
 70
     1
102
RTVSPropertyOp22
 70
     1
102
RTVSPropertyOp23
 70
     1
102
RTVSPropertyOp24
 70
     1
102
RTVSPropertyOp25
 70
     1
102
RTVSPropertyOp26
 70
     1
102
RTVSPropertyOp27
 70
     1
102
RTVSPropertyOp28
 70
     1
102
RTVSPropertyOp29
 70
     1
102
RTVSPropertyOp30
 70
     1
102
RTVSPropertyOp31
 70
     1
102
RTVSPropertyOp32
 70
     1
  0
XRECORD
  5
786
102
{ACAD_REACTORS
330
785
102
}
330
785
100
AcDbXrecord
280
     1
102
RTVSPropertyOp0
 70
     1
102
RTVSPropertyOp1
 70
     1
102
RTVSPropertyOp2
 70
     1
102
RTVSPropertyOp3
 70
     1
102
RTVSPropertyOp4
 70
     1
102
RTVSPropertyOp5
 70
     1
102
RTVSPropertyOp6
 70
     1
102
RTVSPropertyOp7
 70
     1
102
RTVSPropertyOp8
 70
     1
102
RTVSPropertyOp9
 70
     1
102
RTVSPropertyOp10
 70
     1
102
RTVSPropertyOp11
 70
     1
102
RTVSPropertyOp12
 70
     1
102
RTVSPropertyOp13
 70
     1
102
RTVSPropertyOp14
 70
     1
102
RTVSPropertyOp15
 70
     1
102
RTVSPropertyOp16
 70
     1
102
RTVSPropertyOp17
 70
     1
102
RTVSPropertyOp18
 70
     1
102
RTVSPropertyOp19
 70
     1
102
RTVSPropertyOp20
 70
     1
102
RTVSPropertyOp21
 70
     1
102
RTVSPropertyOp22
 70
     1
102
RTVSPropertyOp23
 70
     1
102
RTVSPropertyOp24
 70
     1
102
RTVSPropertyOp25
 70
     1
102
RTVSPropertyOp26
 70
     1
102
RTVSPropertyOp27
 70
     1
102
RTVSPropertyOp28
 70
     1
102
RTVSPropertyOp29
 70
     1
102
RTVSPropertyOp30
 70
     1
102
RTVSPropertyOp31
 70
     1
102
RTVSPropertyOp32
 70
     1
  0
XRECORD
  5
788
102
{ACAD_REACTORS
330
787
102
}
330
787
100
AcDbXrecord
280
     1
102
RTVSPropertyOp0
 70
     1
102
RTVSPropertyOp1
 70
     1
102
RTVSPropertyOp2
 70
     1
102
RTVSPropertyOp3
 70
     1
102
RTVSPropertyOp4
 70
     1
102
RTVSPropertyOp5
 70
     1
102
RTVSPropertyOp6
 70
     1
102
RTVSPropertyOp7
 70
     1
102
RTVSPropertyOp8
 70
     1
102
RTVSPropertyOp9
 70
     1
102
RTVSPropertyOp10
 70
     1
102
RTVSPropertyOp11
 70
     1
102
RTVSPropertyOp12
 70
     1
102
RTVSPropertyOp13
 70
     1
102
RTVSPropertyOp14
 70
     1
102
RTVSPropertyOp15
 70
     1
102
RTVSPropertyOp16
 70
     1
102
RTVSPropertyOp17
 70
     1
102
RTVSPropertyOp18
 70
     1
102
RTVSPropertyOp19
 70
     1
102
RTVSPropertyOp20
 70
     1
102
RTVSPropertyOp21
 70
     1
102
RTVSPropertyOp22
 70
     1
102
RTVSPropertyOp23
 70
     1
102
RTVSPropertyOp24
 70
     1
102
RTVSPropertyOp25
 70
     1
102
RTVSPropertyOp26
 70
     1
102
RTVSPropertyOp27
 70
     1
102
RTVSPropertyOp28
 70
     1
102
RTVSPropertyOp29
 70
     1
102
RTVSPropertyOp30
 70
     1
102
RTVSPropertyOp31
 70
     1
102
RTVSPropertyOp32
 70
     1
  0
XRECORD
  5
78A
102
{ACAD_REACTORS
330
789
102
}
330
789
100
AcDbXrecord
280
     1
102
RTVSPropertyOp0
 70
     1
102
RTVSPropertyOp1
 70
     1
102
RTVSPropertyOp2
 70
     1
102
RTVSPropertyOp3
 70
     1
102
RTVSPropertyOp4
 70
     1
102
RTVSPropertyOp5
 70
     1
102
RTVSPropertyOp6
 70
     1
102
RTVSPropertyOp7
 70
     1
102
RTVSPropertyOp8
 70
     1
102
RTVSPropertyOp9
 70
     1
102
RTVSPropertyOp10
 70
     1
102
RTVSPropertyOp11
 70
     1
102
RTVSPropertyOp12
 70
     1
102
RTVSPropertyOp13
 70
     1
102
RTVSPropertyOp14
 70
     1
102
RTVSPropertyOp15
 70
     1
102
RTVSPropertyOp16
 70
     1
102
RTVSPropertyOp17
 70
     1
102
RTVSPropertyOp18
 70
     1
102
RTVSPropertyOp19
 70
     1
102
RTVSPropertyOp20
 70
     1
102
RTVSPropertyOp21
 70
     1
102
RTVSPropertyOp22
 70
     1
102
RTVSPropertyOp23
 70
     1
102
RTVSPropertyOp24
 70
     1
102
RTVSPropertyOp25
 70
     1
102
RTVSPropertyOp26
 70
     1
102
RTVSPropertyOp27
 70
     1
102
RTVSPropertyOp28
 70
     1
102
RTVSPropertyOp29
 70
     1
102
RTVSPropertyOp30
 70
     1
102
RTVSPropertyOp31
 70
     1
102
RTVSPropertyOp32
 70
     1
  0
XRECORD
  5
79E
102
{ACAD_REACTORS
330
79D
102
}
330
79D
100
AcDbXrecord
280
     1
102
RTVSPropertyOp0
 70
     1
102
RTVSPropertyOp1
 70
     1
102
RTVSPropertyOp2
 70
     1
102
RTVSPropertyOp3
 70
     1
102
RTVSPropertyOp4
 70
     1
102
RTVSPropertyOp5
 70
     1
102
RTVSPropertyOp6
 70
     1
102
RTVSPropertyOp7
 70
     1
102
RTVSPropertyOp8
 70
     1
102
RTVSPropertyOp9
 70
     1
102
RTVSPropertyOp10
 70
     1
102
RTVSPropertyOp11
 70
     1
102
RTVSPropertyOp12
 70
     1
102
RTVSPropertyOp13
 70
     1
102
RTVSPropertyOp14
 70
     1
102
RTVSPropertyOp15
 70
     1
102
RTVSPropertyOp16
 70
     1
102
RTVSPropertyOp17
 70
     1
102
RTVSPropertyOp18
 70
     1
102
RTVSPropertyOp19
 70
     1
102
RTVSPropertyOp20
 70
     1
102
RTVSPropertyOp21
 70
     1
102
RTVSPropertyOp22
 70
     1
102
RTVSPropertyOp23
 70
     1
102
RTVSPropertyOp24
 70
     1
102
RTVSPropertyOp25
 70
     1
102
RTVSPropertyOp26
 70
     1
102
RTVSPropertyOp27
 70
     1
102
RTVSPropertyOp28
 70
     1
102
RTVSPropertyOp29
 70
     1
102
RTVSPropertyOp30
 70
     1
102
RTVSPropertyOp31
 70
     1
102
RTVSPropertyOp32
 70
     1
  0
XRECORD
  5
794
102
{ACAD_REACTORS
330
793
102
}
330
793
100
AcDbXrecord
280
     1
102
RTVSPropertyOp0
 70
     1
102
RTVSPropertyOp1
 70
     1
102
RTVSPropertyOp2
 70
     1
102
RTVSPropertyOp3
 70
     1
102
RTVSPropertyOp4
 70
     1
102
RTVSPropertyOp5
 70
     1
102
RTVSPropertyOp6
 70
     1
102
RTVSPropertyOp7
 70
     1
102
RTVSPropertyOp8
 70
     1
102
RTVSPropertyOp9
 70
     1
102
RTVSPropertyOp10
 70
     1
102
RTVSPropertyOp11
 70
     1
102
RTVSPropertyOp12
 70
     1
102
RTVSPropertyOp13
 70
     1
102
RTVSPropertyOp14
 70
     1
102
RTVSPropertyOp15
 70
     1
102
RTVSPropertyOp16
 70
     1
102
RTVSPropertyOp17
 70
     1
102
RTVSPropertyOp18
 70
     1
102
RTVSPropertyOp19
 70
     1
102
RTVSPropertyOp20
 70
     1
102
RTVSPropertyOp21
 70
     1
102
RTVSPropertyOp22
 70
     1
102
RTVSPropertyOp23
 70
     1
102
RTVSPropertyOp24
 70
     1
102
RTVSPropertyOp25
 70
     1
102
RTVSPropertyOp26
 70
     1
102
RTVSPropertyOp27
 70
     1
102
RTVSPropertyOp28
 70
     1
102
RTVSPropertyOp29
 70
     1
102
RTVSPropertyOp30
 70
     1
102
RTVSPropertyOp31
 70
     1
102
RTVSPropertyOp32
 70
     1
  0
XRECORD
  5
79C
102
{ACAD_REACTORS
330
79B
102
}
330
79B
100
AcDbXrecord
280
     1
102
RTVSPropertyOp0
 70
     1
102
RTVSPropertyOp1
 70
     1
102
RTVSPropertyOp2
 70
     1
102
RTVSPropertyOp3
 70
     1
102
RTVSPropertyOp4
 70
     1
102
RTVSPropertyOp5
 70
     1
102
RTVSPropertyOp6
 70
     1
102
RTVSPropertyOp7
 70
     1
102
RTVSPropertyOp8
 70
     1
102
RTVSPropertyOp9
 70
     1
102
RTVSPropertyOp10
 70
     1
102
RTVSPropertyOp11
 70
     1
102
RTVSPropertyOp12
 70
     1
102
RTVSPropertyOp13
 70
     1
102
RTVSPropertyOp14
 70
     1
102
RTVSPropertyOp15
 70
     1
102
RTVSPropertyOp16
 70
     1
102
RTVSPropertyOp17
 70
     1
102
RTVSPropertyOp18
 70
     1
102
RTVSPropertyOp19
 70
     1
102
RTVSPropertyOp20
 70
     1
102
RTVSPropertyOp21
 70
     1
102
RTVSPropertyOp22
 70
     1
102
RTVSPropertyOp23
 70
     1
102
RTVSPropertyOp24
 70
     1
102
RTVSPropertyOp25
 70
     1
102
RTVSPropertyOp26
 70
     1
102
RTVSPropertyOp27
 70
     1
102
RTVSPropertyOp28
 70
     1
102
RTVSPropertyOp29
 70
     1
102
RTVSPropertyOp30
 70
     1
102
RTVSPropertyOp31
 70
     1
102
RTVSPropertyOp32
 70
     1
  0
ENDSEC
  0
EOF
